Торрент файл
скачать торрент магнет ссылка Добавлен: 28 май 2018, 11:29
Размер: 2 ГБ
Сидеров: 19
Личеров: 3
Статус: (salma3)
Автор

СообщениеДобавлено: 28 май 2018, 11:29 

Не в сети
Супермодератор
Аватара пользователя
Дата регистрации:
15 фев 2012, 16:44
Возраст: 30
Спасибо: 8128 / 2147
Сообщения: 94412
Год выпуска: 1975
Жанр: Приключения, мелодрама
Режиссёр: Сергей Тарасов

В ролях: Борис Хмельницкий, Регина Разума, Вия Артмане, Эдуард Павулс, Альгимантас Масюлис, Юрий Каморный, Инт Буранс, Юрис Стренга, Ромуальд Анцанс, Харий Швейц

Описание: Сюжетную основу фильма составляют несколько баллад о Робин Гуде — легендарном герое английских средневековых народных сказаний. Робин Гуд и его славные стрелки наводили ужас на церковников и феодалов, на всех тех, кто угнетает народ. Они появляются везде, где кому-то, ставшему жертвой произвола, необходима помощь.



Страна: СССР
Студия: Рижская киностудия
Продолжительность: 01:31:14
Перевод: Не требуется

Файл
Качество: DVDRip-AVC
Видео: MPEG-4 AVC, 720x462@1024х462, 25.000 fps, 2950 kbps
Аудио: AC3, 2.0 ch, 192 kbps
Субтитры: Нет
Навигация по главам: Есть

Релиз от:

В фильме звучат баллады Владимира Высоцкого в авторском исполнении.
1. Идея фильма принадлежит "в равных долях" Тарасову, Хмельницкому и Высоцкому.
2. Высоцкий планировался на роль шута, но по некоторым причинам не смог участвовать в съёмках.
3. Когда баллады Высоцкого "вычеркнули" из картины, планировалось и кадры с участием Хмельницкого смыть, а на роль Робина взять другого актёра. К счастью, режиссёр решительно воспротивился, и до этого не дошло.

x264 [info]: frame I:949 Avg QP:17.08 size: 71564
x264 [info]: frame P:35326 Avg QP:19.49 size: 30047
x264 [info]: frame B:100575 Avg QP:21.41 size: 8847

=================================================

Общее
Уникальный идентификатор : 207787956565087689646860867298650192897 (0x9C52813828CB24B89077C4C690C37C01)
Полное имя : Стрелы Робин Гуда_1975-DVDRip-AVC.KORSAR.mkv
Формат : Matroska
Версия формата : Version 2
Размер файла : 2,00 Гбайт
Продолжительность : 1 ч. 31 м.
Общий поток : 3145 Кбит/сек
Дата кодирования : UTC 2017-06-25 20:46:07
Программа кодирования : mkvmerge v5.8.0 ('No Sleep / Pillow') built on Sep 2 2012 15:37:04
Библиотека кодирования : libebml v1.2.3 + libmatroska v1.3.0

Видео
Идентификатор : 1
Формат : AVC
Формат/Информация : Advanced Video Codec
Профиль формата : High@L4.1
Параметр CABAC формата : Да
Параметр ReFrames формата : 15 кадров
Идентификатор кодека : V_MPEG4/ISO/AVC
Продолжительность : 1 ч. 31 м.
Битрейт : 2950 Кбит/сек
Ширина : 720 пикселей
Высота : 462 пикселя
Соотношение сторон : 2,2:1
Режим частоты кадров : Постоянный
Частота кадров : 25,000 кадров/сек
Цветовое пространство : YUV
Субдискретизация насыщенности : 4:2:0
Битовая глубина : 8 бит
Тип развёртки : Прогрессивная
Бит/(Пиксели*Кадры) : 0.355
Размер потока : 1,84 Гбайт (92%)
Библиотека кодирования : x264 core 148 r2744kMod b97ae06
Настройки программы : cabac=1 / ref=15 / deblock=1:-2:-1 / analyse=0x3:0x133 / me=umh / subme=10 / psy=1 / fade_compensate=0.00 / psy_rd=1.05:0.10 / mixed_ref=1 / me_range=40 / chroma_me=1 / trellis=2 / 8x8dct=1 / cqm=0 / deadzone=21,11 / fast_pskip=0 / chroma_qp_offset=-3 / threads=12 / lookahead_threads=2 / sliced_threads=0 / nr=0 / decimate=0 / interlaced=0 / bluray_compat=0 / constrained_intra=0 / bframes=9 / b_pyramid=2 / b_adapt=2 / b_bias=0 / direct=3 / weightb=1 / open_gop=0 / weightp=2 / keyint=250 / keyint_min=25 / scenecut=40 / intra_refresh=0 / rc=2pass / mbtree=0 / bitrate=2950 / ratetol=1.0 / qcomp=0.63 / qpmin=0 / qpmax=39 / qpstep=4 / cplxblur=20.0 / qblur=0.5 / ip_ratio=1.25 / pb_ratio=1.30 / aq=2:0.90
Язык : English
Default : Да
Forced : Нет
Цветовой диапазон : Limited
Основные цвета : BT.601 PAL
Характеристики трансфера : BT.470 System B, BT.470 System G
Коэффициенты матрицы : BT.601

Аудио
Идентификатор : 2
Формат : AC-3
Формат/Информация : Audio Coding 3
Параметр Endianness формата : Big
Идентификатор кодека : A_AC3
Продолжительность : 1 ч. 31 м.
Вид битрейта : Постоянный
Битрейт : 192 Кбит/сек
Каналы : 2 канала
Расположение каналов : Front: L R
Частота : 48,0 КГц
Частота кадров : 31,250 кадров/сек (1536 spf)
Битовая глубина : 16 бит
Метод сжатия : С потерями
Размер потока : 125 Мбайт (6%)
Язык : Russian
Default : Да
Forced : Нет

Меню
00:00:00.000 : en:Chapter 1
00:03:49.200 : en:Chapter 2
00:06:34.200 : en:Chapter 3
00:13:40.800 : en:Chapter 4
00:22:24.000 : en:Chapter 5
00:30:37.200 : en:Chapter 6
00:37:59.400 : en:Chapter 7
00:41:49.200 : en:Chapter 8
00:45:16.200 : en:Chapter 9
00:55:23.400 : en:Chapter 10
01:02:25.200 : en:Chapter 11
01:07:12.600 : en:Chapter 12
01:12:10.800 : en:Chapter 13
01:17:39.000 : en:Chapter 14
01:21:52.200 : en:Chapter 15
01:26:32.400 : en:Chapter 16


_________________
Проголосуй за трекер Открытый торрент трекер - RUS-MEDIA.ORG

Проголосуй Открытый торрент трекер - RUS-MEDIA.ORG


Скачать книги и аудио книги через торрент


Вернуться к началу
 Профиль Отправить личное сообщение  
 
   Похожие торренты   Автор   Торрент   Размер 
В этой теме нет новых непрочитанных сообщений. Красотка / Pretty Woman [Мелодрама, комедия, 1990] BDRip-AVC, Avo [Режиссёрская версия]

salma3

15 | 1

3.21 ГБ

В этой теме нет новых непрочитанных сообщений. Идеальный побег / A Perfect Getaway [триллер, детектив, приключения, 2009] BDRip-AVC, Dub [Режиссерская версия]

salma3

0 | 0

745.99 МБ

В этой теме нет новых непрочитанных сообщений. Остаться в живых / Stay Alive [Ужасы, триллер, 2006] DVDRip-AVC, Mvo [Режиссерская версия]

salma3

110 | 48

2.41 ГБ

В этой теме нет новых непрочитанных сообщений. Робин и Мэриан / Robin and Marian [Драма, мелодрама, приключения, 1976] HDTVRip-AVC, Dub

salma3

0 | 0

3.49 ГБ

В этой теме нет новых непрочитанных сообщений. Электра / Elektra [фэнтези, боевик, триллер, 2005] HDRip-AVC, Dub [Режиссерская версия]

salma3

0 | 0

741.7 МБ

В этой теме нет новых непрочитанных сообщений. Полицейские / Cop Land [Триллер, драма, криминал, 1997] BDRip-AVC, Mvo [Режиссёрская версия]

salma3

0 | 0

745.15 МБ

В этой теме нет новых непрочитанных сообщений. Выживая с волками / Survivre avec les loups [драма, 2007] HDRip-AVC, Mvo [Режиссёрская версия]

salma3

0 | 0

2.11 ГБ


Начать новую тему Ответить на тему  [ 1 сообщение ] 




Для Мосгорсуда, Роскомнадзора и рекламодателей:: mosgorsud-torrent[собачка]yandex.ru
cron