Торрент файл
скачать торрент магнет ссылка Добавлен: 05 апр 2018, 12:51
Размер: 1.09 ГБ
Сидеров: 0
Личеров: 0
Статус: (salma3)
Автор

СообщениеДобавлено: 05 апр 2018, 12:51 

Не в сети
Супермодератор
Аватара пользователя
Дата регистрации:
15 фев 2012, 16:44
Возраст: 29
Спасибо: 7377 / 2147
Сообщения: 75909
Формат: DVDRip-AVC, MKV, H.264, AC3
Режиссер: Михаил Ромм
Жанр: драма
Продолжительность: 01:38:16
Год выпуска: 1956

В ролях: Евгения Козырева, Михаил Козаков, Георгий Вицин, Валентин Гафт, Иннокентий Смоктуновский, Николай Комиссаров, Максим Штраух, Ростислав Плятт, Владимир Муравьев, Николай Горлов

Описание: В годы войны французская актриса Мадлен Тибо, активная участница Сопротивления, случайно узнала, что ее сын завербован фашистами. Все ее попытки пробудить в сыне патриотические чувства безуспешны. По вине Шарля погибают многие его соотечественники и родные. В смертельной опасности оказывается и сама Мадлен…



Видео: 688x536@714x536 (4:3), 25 fps, AVC MPEG-4 (H.264), ~1392 kbps, 0.151 bit/pixel
Аудио: 48 kHz, AC3 Dolby Digital, 2 ch, ~192 kbps

Формат : Matroska
Версия формата : Version 2
Размер файла : 1,09 Гбайт
Продолжительность : 1 ч. 38 м.
Общий поток : 1586 Кбит/сек
Дата кодирования : UTC 2016-12-25 17:51:07
Программа кодирования : mkvmerge v6.1.0 ('Old Devil') built on Mar 4 2013 09:10:42
Библиотека кодирования : libebml v1.3.0 + libmatroska v1.4.0

Видео
Идентификатор : 1
Формат : AVC
Формат/Информация : Advanced Video Codec
Профиль формата :
Параметр CABAC формата : Да
Параметр ReFrames формата : 10 кадров
Идентификатор кодека : V_MPEG4/ISO/AVC
Продолжительность : 1 ч. 38 м.
Битрейт : 1392 Кбит/сек
Ширина : 688 пикселей
Высота : 536 пикселей
Соотношение сторон : 4:3
Режим частоты кадров : Постоянный
Частота кадров : 25,000 кадров/сек
Цветовое пространство : YUV
Субдискретизация насыщенности : 4:2:0
Битовая глубина : 8 бит
Тип развёртки : Прогрессивная
Бит/(Пиксели*Кадры) : 0.151
Размер потока : 957 Мбайт (86%)
Библиотека кодирования : x264 core 148 r2597 e86f3a1
Настройки программы : cabac=1 / ref=10 / deblock=1:-2:-1 / analyse=0x3:0x113 / me=umh / subme=10 / psy=1 / psy_rd=1.00:0.00 / mixed_ref=1 / me_range=32 / chroma_me=1 / trellis=2 / 8x8dct=1 / cqm=0 / deadzone=21,11 / fast_pskip=1 / chroma_qp_offset=-2 / threads=6 / lookahead_threads=1 / sliced_threads=0 / nr=0 / decimate=0 / interlaced=0 / bluray_compat=0 / constrained_intra=0 / bframes=8 / b_pyramid=2 / b_adapt=2 / b_bias=0 / direct=3 / weightb=1 / open_gop=0 / weightp=2 / keyint=250 / keyint_min=25 / scenecut=40 / intra_refresh=0 / rc=2pass / mbtree=0 / bitrate=1392 / ratetol=1.0 / qcomp=0.60 / qpmin=0 / qpmax=69 / qpstep=4 / cplxblur=20.0 / qblur=0.5 / ip_ratio=1.40 / pb_ratio=1.30 / aq=1:1.00
Default : Да
Forced : Нет

Аудио
Идентификатор : 2
Формат : AC-3
Формат/Информация : Audio Coding 3
Расширение режима : CM (complete main)
Параметр Endianness формата : Big
Идентификатор кодека : A_AC3
Продолжительность : 1 ч. 38 м.
Вид битрейта : Постоянный
Битрейт : 192 Кбит/сек
Каналы : 2 канала
Расположение каналов : Front: L R
Частота : 48,0 КГц
Частота кадров : 31,250 кадров/сек (1536 spf)
Битовая глубина : 16 бит
Метод сжатия : С потерями
Размер потока : 135 Мбайт (12%)
Default : Да
Forced : Нет





_________________
Проголосуй за трекер Открытый торрент трекер - RUS-MEDIA.ORG

Проголосуй Открытый торрент трекер - RUS-MEDIA.ORG


Вернуться к началу
 Профиль Отправить личное сообщение  
 
   Похожие торренты   Автор   Торрент   Размер 
В этой теме нет новых непрочитанных сообщений. Убийство есть убийство / Un meurtre est un meurtre [драма, криминал, детектив, 1972] DVDRip, Avo

salma3

32 | 7

1.37 ГБ

В этой теме нет новых непрочитанных сообщений. Посеяли девушки лён [драма, мелодрама, 1956] DVDRip

salma3

21 | 7

1.46 ГБ

В этой теме нет новых непрочитанных сообщений. Рисовое поле / La risaia [драма, 1956] DVDRip, Avo

salma3

0 | 0

1.45 ГБ

В этой теме нет новых непрочитанных сообщений. Солдаты / В окопах Сталинграда [драма, военный, экранизация, 1956] DVDRip-AVC

salma3

66 | 21

1.46 ГБ

В этой теме нет новых непрочитанных сообщений. Убийство в маленьком городе / A Killing in a Small Town [драма, триллер, 1990] DVDRip, Dvo

salma3

0 | 0

1.46 ГБ

В этой теме нет новых непрочитанных сообщений. Убийство в трех актах / Murder in Three Acts [драма, криминал, детектив, 1986] DVDRip-AVC, Dub

salma3

0 | 0

1.46 ГБ

В этой теме нет новых непрочитанных сообщений. Убийство Джона Леннона / The Killing of John Lennon [драма, криминал, 2006] DVDRip, Dvo

salma3

88 | 9

1.95 ГБ


Начать новую тему Ответить на тему  [ 1 сообщение ] 




Для Мосгорсуда, Роскомнадзора и рекламодателей:: mosgorsud-torrent[собачка]yandex.ru
cron