Торрент файл
скачать торрент магнет ссылка Добавлен: 13 мар 2018, 13:42
Размер: 4.45 ГБ
Сидеров: 11
Личеров: 11
Статус: (salma3)
Автор

СообщениеДобавлено: 13 мар 2018, 13:42 

Не в сети
Супермодератор
Аватара пользователя
Дата регистрации:
15 фев 2012, 16:44
Возраст: 28
Спасибо: 7204 / 2147
Сообщения: 65240
Формат: SATRip-AVC, MKV, H.264, AC3
Режиссер: Григорий Липшиц
Жанр: военный, драма
Продолжительность: 3 х ~ 01:05:45
Год выпуска: 1970

В ролях: Николай Олялин, Александр Январёв, Алексей Чернов, Игорь Ясулович, Николай Мерзликин, Галина Польских, Михаил Глузский, Юрий Саранцев, Валерий Малышев (I), Владимир Алексеенко, Владимир Волков, Неонила Гнеповская, Фёдор Ищенко, Любовь Комарецкая, Иван Матвеев, Дмитрий Миргородский, Борис Юрченко, Лев Лемке

Описание:
Великая Отечественная война, октябрь 1943 года. Майор Красной Армии Топорков, совершив побег из концлагеря, попадает в партизанский отряд. Он передаёт командиру отряда просьбу заключённых: в лагере готовится восстание, необходимо оружие. Командир отряда принимает решение отправить в помощь восставшим обоз с оружием и боеприпасами. Но командованию отряда известно, что у них в отряде действует предатель, все планы сообщающий врагам. И тогда командир решает отправить два обоза : один с настоящим оружием, а второй — ложный, для отвлечения немцев от настоящего. И вот идёт по Полесью, через чащобы и болота, по немецким тылам партизанский обоз, преследуемый по пятам немецкими егерями , отвлекая на себя силы фашистов и обратной дороги у него нет…



Видео: 704x572@768x572 (4:3), 25 fps, AVC Н.264 ~2375 kbps avg, 0.236 bit/pixel
Аудио: 48 kHz, AC3, 2/0 (L,R) ch, ~192.00 kbps avg

Общее
Уникальный идентификатор : 191100831533874073940259461439701992026 (0x8FC4AE6F3C9EE75BA2E15E399329425A)
Полное имя : G:\МОИ РИПЫ\Обратной дороги нет_1970-SATRip-AVC\Обратной дороги нет-1.mkv
Формат : Matroska
Версия формата : Version 2
Размер файла : 1,17 Гбайт
Продолжительность : 1 ч. 5 м.
Общий поток : 2569 Кбит/сек
Дата кодирования : UTC 2014-12-14 16:02:57
Программа кодирования : mkvmerge v5.2.0 ('I can't explain') built on Dec 18 2011 18:12:03
Библиотека кодирования : libebml v1.2.3 + libmatroska v1.3.0

Видео
Идентификатор : 1
Формат : AVC
Формат/Информация : Advanced Video Codec
Профиль формата :
Параметр CABAC формата : Да
Параметр ReFrames формата : 15 кадров
Идентификатор кодека : V_MPEG4/ISO/AVC
Продолжительность : 1 ч. 5 м.
Битрейт : 2375 Кбит/сек
Ширина : 704 пикселя
Высота : 572 пикселя
Соотношение сторон : 4:3
Режим частоты кадров : Постоянный
Частота кадров : 25,000 кадров/сек
Цветовое пространство : YUV
Субдискретизация насыщенности : 4:2:0
Битовая глубина : 8 бит
Тип развёртки : Прогрессивная
Бит/(Пиксели*Кадры) : 0.236
Размер потока : 1,06 Гбайт (91%)
Библиотека кодирования : x264 core 142 r2431 ac76440
Настройки программы : cabac=1 / ref=15 / deblock=1:-2:-2 / analyse=0x3:0x133 / me=umh / subme=10 / psy=1 / psy_rd=1.05:0.15 / mixed_ref=1 / me_range=32 / chroma_me=1 / trellis=2 / 8x8dct=1 / cqm=0 / deadzone=21,11 / fast_pskip=0 / chroma_qp_offset=-3 / threads=12 / lookahead_threads=2 / sliced_threads=0 / nr=0 / decimate=0 / interlaced=0 / bluray_compat=0 / constrained_intra=0 / bframes=7 / b_pyramid=2 / b_adapt=2 / b_bias=0 / direct=1 / weightb=1 / open_gop=0 / weightp=2 / keyint=250 / keyint_min=25 / scenecut=40 / intra_refresh=0 / rc=2pass / mbtree=0 / bitrate=2375 / ratetol=1.0 / qcomp=0.60 / qpmin=0 / qpmax=39 / qpstep=4 / cplxblur=20.0 / qblur=0.5 / ip_ratio=1.40 / pb_ratio=1.30 / aq=1:1.00
Язык : English
Default : Да
Forced : Нет
Основные цвета : BT.601 PAL
Характеристики трансфера : BT.470 System B, BT.470 System G
Коэффициенты матрицы : BT.601
colour_range : Limited

Аудио
Идентификатор : 2
Формат : AC-3
Формат/Информация : Audio Coding 3
Расширение режима : CM (complete main)
Параметр Endianness формата : Big
Идентификатор кодека : A_AC3
Продолжительность : 1 ч. 5 м.
Вид битрейта : Постоянный
Битрейт : 192 Кбит/сек
Каналы : 2 канала
Расположение каналов : Front: L R
Частота : 48,0 КГц
Битовая глубина : 16 бит
Метод сжатия : С потерями
Задержка видео : 250 мс.
Размер потока : 89,8 Мбайт (7%)
Язык : Russian
Default : Да
Forced : Нет




_________________
Проголосуй за трекер Открытый торрент трекер - RUS-MEDIA.ORG

Проголосуй Открытый торрент трекер - RUS-MEDIA.ORG


Вернуться к началу
 Профиль Отправить личное сообщение  
 
   Похожие торренты   Автор   Торрент   Размер 
В этой теме нет новых непрочитанных сообщений. Три дороги (1-4 серии из 4) [мелодрама, 2016] WEB-DL 720p

salma3

541 | 341

3.77 ГБ

В этой теме нет новых непрочитанных сообщений. Кромвель / Cromwell [драма, военный, биография, история, 1970] HDRip, Dvo [НТВ+]

salma3

126 | 15

2.18 ГБ

В этой теме нет новых непрочитанных сообщений. Кромвель / Cromwell [драма, военный, биография, история, 1970] BDRip, Dvo [НТВ+]

salma3

109 | 39

1.46 ГБ

В этой теме нет новых непрочитанных сообщений. Паттон / Patton [драма, военный, биография, история, 1970] HDRip, Mvo

salma3

38 | 14

1.45 ГБ

В этой теме нет новых непрочитанных сообщений. Операция «Мухаббат» (1-9 серии из 9) [драма, триллер, военный, приключения, 2018] SATRip

salma3

921 | 946

6.19 ГБ

В этой теме нет новых непрочитанных сообщений. Кромвель / Cromwell [драма, военный, биография, история, 1970] BDRip 1080p, Dvo

salma3

38 | 12

8.61 ГБ

В этой теме нет новых непрочитанных сообщений. Кромвель / Cromwell [драма, военный, биография, история, 1970] BDRip 720p, Dvo [НТВ+]

salma3

145 | 12

3.72 ГБ


Начать новую тему Ответить на тему  [ 1 сообщение ] 




Для Мосгорсуда, Роскомнадзора и рекламодателей:: mosgorsud-torrent[собачка]yandex.ru
cron