Торрент файл
скачать торрент магнет ссылка Добавлен: 20 авг 2017, 01:03
Размер: 1.45 ГБ
Сидеров: 13
Личеров: 7
Статус: (salma3)
Автор

СообщениеДобавлено: 20 авг 2017, 01:03 

Не в сети
Супермодератор
Аватара пользователя
Дата регистрации:
15 фев 2012, 16:44
Возраст: 28
Спасибо: 7290 / 2147
Сообщения: 70686
Формат: DVDRip-AVC, MKV, H.264, AC3
Режиссер: Вадим Гаузнер
Жанр: приключения, семейный
Продолжительность: 01:14:27
Год выпуска: 1972

В ролях: Анатолий Солоницын, Юрий Астафьев, Виктор Смирнов, Иван Краско, Майя Булгакова, Александр Соколов, Марина Неёлова, Ролан Быков, Олег Борисов, Геннадий Полока

Описание: Молодой воришка Томи отправляется во дворец, чтобы поблагодарить своего спасителя, заплатившего за него выкуп бандитам, но неожиданно сталкивается лицом к лицу с принцем Эдуардом, который как две капли воды похож на него. Двое молодых людей решают на время поменяться местами. Воришке жизнь во дворце кажется такой же тяжелой, как и принцу жизнь на улице. Удивительное внешнее сходство принца Эдуарда и нищего Тома - завязка классической истории, увлекательных интриг, яростных столкновений дворцовых амбиций и человеческих страстей. Поменявшись местами, они стали вживаться в новые роли. Но беспечная игра обернулась нежданными последствиями.



Видео: 720x576@768x576 (4:3), 25 fps, AVC MPEG-4 (H.264), ~2595 kbps, 0.250 bit/pixel
Аудио: 48 kHz, AC3 Dolby Digital, 2/0 (L,R) ch, ~192 kbps

Format : Matroska
Format version : Version 2
File size : 1.45 GiB
Duration : 1 h 14 min
Overall bit rate : 2 788 kb/s
Encoded date : UTC 2017-08-04 11:00:23
Writing application : mkvmerge v7.8.0 ('River Man') 32bit built on Mar 27 2015 16:18:02
Writing library : libebml v1.3.1 + libmatroska v1.4.2

Video
ID : 1
Format : AVC
Format/Info : Advanced Video Codec
Format profile :
Format settings, CABAC : Yes
Format settings, ReFrames : 16 frames
Codec ID : V_MPEG4/ISO/AVC
Duration : 1 h 14 min
Bit rate : 2 595 kb/s
Width : 720 pixels
Height : 576 pixels
Display aspect ratio : 4:3
Frame rate mode : Constant
Frame rate : 25.000 FPS
Standard : PAL
Color space : YUV
Chroma subsampling : 4:2:0
Bit depth : 8 bits
Scan type : Progressive
Bits/(Pixel*Frame) : 0.250
Stream size : 1.32 GiB (91%)
Title : Принц и нищий.1972
Writing library : x264 core 150 r2833kMod df79067
Encoding settings : cabac=1 / ref=16 / deblock=1:-1:-1 / analyse=0x3:0x133 / me=umh / subme=11 / psy=1 / fade_compensate=0.00 / psy_rd=0.90:0.10 / mixed_ref=1 / me_range=32 / chroma_me=1 / trellis=2 / 8x8dct=1 / cqm=0 / deadzone=21,11 / fast_pskip=0 / chroma_qp_offset=-3 / threads=12 / lookahead_threads=2 / sliced_threads=0 / nr=0 / decimate=0 / interlaced=0 / bluray_compat=0 / constrained_intra=0 / bframes=8 / b_pyramid=2 / b_adapt=2 / b_bias=0 / direct=3 / weightb=1 / open_gop=0 / weightp=2 / keyint=250 / keyint_min=25 / scenecut=40 / intra_refresh=0 / rc_lookahead=60 / rc=2pass / mbtree=0 / bitrate=2595 / ratetol=1.0 / qcomp=0.60 / qpmin=0 / qpmax=69 / qpstep=4 / cplxblur=20.0 / qblur=0.5 / vbv_maxrate=62500 / vbv_bufsize=78125 / nal_hrd=none / filler=0 / ip_ratio=1.35 / pb_ratio=1.30 / aq=2:0.80
Language : Russian
Default : Yes
Forced : No
Color range : Limited
Color primaries : BT.601 PAL
Transfer characteristics : BT.470 System B, BT.470 System G
Matrix coefficients : BT.601

Audio
ID : 2
Format : AC-3
Format/Info : Audio Coding 3
Mode extension : CM (complete main)
Format settings, Endianness : Big
Codec ID : A_AC3
Duration : 1 h 14 min
Bit rate mode : Constant
Bit rate : 192 kb/s
Channel(s) : 2 channels
Channel positions : Front: L R
Sampling rate : 48.0 kHz
Frame rate : 31.250 FPS (1536 spf)
Compression mode : Lossy
Stream size : 102 MiB (7%)
Title : Оригинал: AC-3; 16 bits 48 Khz; 2.0ch 192 Kbps; CBR
Language : Russian
Default : Yes
Forced : No





_________________
Проголосуй за трекер Открытый торрент трекер - RUS-MEDIA.ORG

Проголосуй Открытый торрент трекер - RUS-MEDIA.ORG


Вернуться к началу
 Профиль Отправить личное сообщение  
 
   Похожие торренты   Автор   Торрент   Размер 
В этой теме нет новых непрочитанных сообщений. Принц Египта / The Prince of Egypt [мультфильм, приключения, семейный, история, 1998] WEBRip 1080p, 2Dub+Mvo+2Dvo+2Avo

salma3

57 | 6

7.4 ГБ

В этой теме нет новых непрочитанных сообщений. Принц-медведь / Der Prinz im Barenfell [фэнтези, семейный, 2015] HDTV 1080i, Mvo

salma3

86 | 30

4.05 ГБ

В этой теме нет новых непрочитанных сообщений. Невинный мирный житель / Innocent Bystanders [боевик, криминал, приключения, 1972] DVDRip, Avo

salma3

115 | 14

1.46 ГБ

В этой теме нет новых непрочитанных сообщений. Приданое княжны Ралу / Zestrea domnitei Ralu [боевик, приключения, история, 1972] DVDRip, Dub+Dvo

salma3

124 | 15

1.45 ГБ

В этой теме нет новых непрочитанных сообщений. Принц Сибири (1-20 серии из 20) [комедия, приключения, 2015] WEB-DLRip

salma3

210 | 68

11.01 ГБ

В этой теме нет новых непрочитанных сообщений. Приключения есть приключения / L'aventure, c'est l'aventure [Комедия, Приключения, 1972] BDRip 720p, Mvo

salma3

0 | 1

6.11 ГБ

В этой теме нет новых непрочитанных сообщений. Хроники Нарнии: Принц Каспиан / The Chronicles of Narnia: Prince Caspian [фэнтези, боевик, приключения, 2008] BDRip 720p, Dub+Sub

salma3

58 | 16

4.37 ГБ


Начать новую тему Ответить на тему  [ 1 сообщение ] 




Для Мосгорсуда, Роскомнадзора и рекламодателей:: mosgorsud-torrent[собачка]yandex.ru
cron