Торрент файл
скачать торрент магнет ссылка Добавлен: 19 авг 2017, 22:21
Размер: 1.09 ГБ
Сидеров: 15
Личеров: 7
Статус: (salma3)
Автор

СообщениеДобавлено: 19 авг 2017, 22:21 

Не в сети
Супермодератор
Аватара пользователя
Дата регистрации:
15 фев 2012, 16:44
Возраст: 28
Спасибо: 6642 / 2146
Сообщения: 45664
Формат: DVDRip-AVC, MKV, H.264, AC3
Режиссер: Владимир Басов, Мстислав Корчагин
Жанр: драма, приключения, военный
Продолжительность: 01:33:39
Год выпуска: 1954

В ролях: Леонид Харитонов, Марк Бернес, Владимир Емельянов, Николай Гарин, Георгий Гумилевский, А. Сергеев, Вадим Захарченко, Михаил Пуговкин, Николай Граббе, Владимир Горелов

Описание:
В центре фильма судьба провинциального парня, ставшего участником революционных событий и гражданской войны. Когда началась революция, Алеша уже окончил училище и готовился вступить во взрослую жизнь. Но история его судьбу круто повернула: он вступает в партию большевиков и, выполняя задание партии, попадает в стан белых. Только смекалка и находчивость спасают его от неминуемой гибели.



Видео: 680x572@762x572 (4:3), 25 fps, AVC MPEG-4 (H.264), ~1470 kbps, 0.151 bit/pixel
Аудио: 48 kHz, AC3 Dolby Digital, 2/0 (L,R) ch, ~192 kbps

Формат : Matroska
Версия формата : Version 2
Размер файла : 1,09 Гбайт
Продолжительность : 1 ч. 33 м.
Общий поток : 1664 Кбит/сек
Дата кодирования : UTC 2016-04-26 16:56:34
Программа кодирования : mkvmerge v6.1.0 ('Old Devil') built on Mar 4 2013 09:10:42
Библиотека кодирования : libebml v1.3.0 + libmatroska v1.4.0

Видео
Идентификатор : 1
Формат : AVC
Формат/Информация : Advanced Video Codec
Профиль формата :
Параметр CABAC формата : Да
Параметр ReFrames формата : 10 кадров
Идентификатор кодека : V_MPEG4/ISO/AVC
Продолжительность : 1 ч. 33 м.
Битрейт : 1470 Кбит/сек
Ширина : 680 пикселей
Высота : 572 пикселя
Соотношение сторон : 4:3
Режим частоты кадров : Постоянный
Частота кадров : 25,000 кадров/сек
Цветовое пространство : YUV
Субдискретизация насыщенности : 4:2:0
Битовая глубина : 8 бит
Тип развёртки : Прогрессивная
Бит/(Пиксели*Кадры) : 0.151
Размер потока : 964 Мбайт (86%)
Библиотека кодирования : x264 core 148 r2597 e86f3a1
Настройки программы : cabac=1 / ref=10 / deblock=1:-2:-1 / analyse=0x3:0x113 / me=umh / subme=10 / psy=1 / psy_rd=1.00:0.00 / mixed_ref=1 / me_range=32 / chroma_me=1 / trellis=2 / 8x8dct=1 / cqm=0 / deadzone=21,11 / fast_pskip=1 / chroma_qp_offset=-2 / threads=6 / lookahead_threads=1 / sliced_threads=0 / nr=0 / decimate=0 / interlaced=0 / bluray_compat=0 / constrained_intra=0 / bframes=8 / b_pyramid=2 / b_adapt=2 / b_bias=0 / direct=3 / weightb=1 / open_gop=0 / weightp=2 / keyint=250 / keyint_min=25 / scenecut=40 / intra_refresh=0 / rc=2pass / mbtree=0 / bitrate=1470 / ratetol=1.0 / qcomp=0.60 / qpmin=0 / qpmax=69 / qpstep=4 / cplxblur=20.0 / qblur=0.5 / ip_ratio=1.40 / pb_ratio=1.30 / aq=1:1.00
Default : Да
Forced : Нет

Аудио
Идентификатор : 2
Формат : AC-3
Формат/Информация : Audio Coding 3
Расширение режима : CM (complete main)
Параметр Endianness формата : Big
Идентификатор кодека : A_AC3
Продолжительность : 1 ч. 33 м.
Вид битрейта : Постоянный
Битрейт : 192 Кбит/сек
Каналы : 2 канала
Расположение каналов : Front: L R
Частота : 48,0 КГц
Частота кадров : 31,250 кадров/сек (1536 spf)
Метод сжатия : С потерями
Размер потока : 129 Мбайт (12%)
Default : Да
Forced : Нет





_________________
Проголосуй за трекер Открытый торрент трекер - RUS-MEDIA.ORG

Проголосуй Открытый торрент трекер - RUS-MEDIA.ORG



реклама партнёра


Вернуться к началу
 Профиль Отправить личное сообщение  
 
   Похожие торренты   Автор   Торрент   Размер 
В этой теме нет новых непрочитанных сообщений. Зеленый огонь / Green Fire [Драма, приключения, 1954] DVDRip, Mvo

salma3

19 | 3

1.37 ГБ

В этой теме нет новых непрочитанных сообщений. Самурай: Путь воина / Miyamoto Musashi [боевик, драма, мелодрама, приключения, 1954] BDRemux 1080р, Mvo

salma3

17 | 7

17.04 ГБ

В этой теме нет новых непрочитанных сообщений. Перед потопом / Avant le déluge [драма, криминал, 1954] DVDRip, Mvo

salma3

0 | 0

2.2 ГБ

В этой теме нет новых непрочитанных сообщений. Миротворцы / Guerreros [Драма, приключения, военный, 2002] DVDRip, Mvo

salma3

47 | 4

1.36 ГБ

В этой теме нет новых непрочитанных сообщений. Балтийская слава [драма, история, военный, приключения, 1957] DVDRip-AVC

salma3

36 | 12

1.09 ГБ

В этой теме нет новых непрочитанных сообщений. Балтийская слава [драма, история, военный, приключения, 1957] DVDRip

salma3

20 | 5

1.09 ГБ

В этой теме нет новых непрочитанных сообщений. Черный щит Фолуорта / The Black Shield of Falworth [мелодрама, приключения, история, 1954] BDRip 720p, Mvo

salma3

27 | 3

4.37 ГБ


Начать новую тему Ответить на тему  [ 1 сообщение ] 




Для Мосгорсуда, Роскомнадзора и рекламодателей:: mosgorsud-torrent[собачка]yandex.ru