Торрент файл
скачать торрент магнет ссылка Добавлен: 13 июл 2017, 11:08
Размер: 4.24 ГБ
Сидеров: 14
Личеров: 4
Статус: (salma3)
Автор

СообщениеДобавлено: 13 июл 2017, 11:08 

Не в сети
Супермодератор
Аватара пользователя
Дата регистрации:
15 фев 2012, 16:44
Возраст: 29
Спасибо: 7377 / 2147
Сообщения: 75986
Год выхода: 1972
Жанр: Сказка, мелодрама, экранизация
Режиссер: Александр Птушко

В ролях: Валерий Козинец, Наталья Петрова-Серуш, Владимир Фёдоров, Андрей Абрикосов, Мария Капнист, Наталья Хренникова, Игорь Ясулович, Виктор Шульгин, Олег Мокшанцев, Руслан Ахметов, Вячеслав Невинный ст., Сергей Мартинсон, Николай Кутузов, Эве Киви, Валерий Носик, Зоя Василькова, Георгий Светлани, Алексей Крыченков, Людмила Карауш, Екатерина Мазурова

О фильме:
Поставленный по мотивам знаменитой поэмы А. С. Пушкина, фильм погружает зрителя в мир волшебной сказки. Доблестный Руслан, отправившийся на поиски похищенной невесты, одолевает коварство, обман, злое колдовство — и, в конце концов, в жестоком бою побеждает Черномора… Создатели картины сумели решить сложнейшую творческую задачу, передав экранными средствами самые тонкие нюансы гениального первоисточника, его дух, драматизм и поэтическую прелесть.



Страна: СССР
Продолжительность: 01:13:02 + 01:06:34
Перевод: не требуется

Файл
Кодек: h.264
Качество: DVDRip
Видео: MPEG-4 AVC, 768x600, 3000 Кбит/с, 25.000 кадр/с
Аудио #1: Русский ( AC3, 6ch, 448 Кбит/с, 48.0 KHz)
Аудио #2: Английский ( AC3, 6ch, 448 Кбит/с, 48.0 KHz)
Аудио #3: Французский ( AC3, 6ch, 448 Кбит/с, 48.0 KHz)
Субтитры: русские, английские, французские, немецкие

Семпл

General
Unique ID : 196586312974167837360125929385808154959 (0x93E5258CE8E95D0CA0573210F0A0D14F)
Complete name : Ruslan.i.Ljudmila.1972.DVDRip-AVC
Format : Matroska
Format version : Version 4 / Version 2
File size : 2.22 GiB
Duration : 1 h 13 min
Overall bit rate : 4 346 kb/s
Encoded date : UTC 2017-07-09 08:24:43
Writing application : mkvmerge v7.8.0 ('River Man') 64bit built on Mar 27 2015 16:31:37
Writing library : libebml v1.3.1 + libmatroska v1.4.2
Video
ID : 1
Format : AVC
Format/Info : Advanced Video Codec
Format profile : High@L4.1
Format settings, CABAC : Yes
Format settings, ReFrames : 14 frames
Codec ID : V_MPEG4/ISO/AVC
Duration : 1 h 13 min
Bit rate : 3 000 kb/s
Width : 768 pixels
Height : 600 pixels
Display aspect ratio : 1.280
Frame rate mode : Constant
Frame rate : 25.000 FPS
Color space : YUV
Chroma subsampling : 4:2:0
Bit depth : 8 bits
Scan type : Progressive
Bits/(Pixel*Frame) : 0.260
Stream size : 1.53 GiB (69%)
Title : Video-H264
Writing library : x264 core 146 r2538 121396c
Encoding settings : cabac=1 / ref=14 / deblock=1:0:0 / analyse=0x3:0x133 / me=umh / subme=11 / psy=1 / psy_rd=1.00:0.00 / mixed_ref=1 / me_range=32 / chroma_me=1 / trellis=2 / 8x8dct=1 / cqm=0 / deadzone=21,11 / fast_pskip=1 / chroma_qp_offset=-2 / threads=6 / lookahead_threads=1 / sliced_threads=0 / nr=0 / decimate=1 / interlaced=0 / bluray_compat=0 / constrained_intra=0 / bframes=10 / b_pyramid=2 / b_adapt=2 / b_bias=0 / direct=3 / weightb=1 / open_gop=0 / weightp=2 / keyint=250 / keyint_min=23 / scenecut=40 / intra_refresh=0 / rc_lookahead=60 / rc=2pass / mbtree=1 / bitrate=3000 / ratetol=1.0 / qcomp=0.60 / qpmin=0 / qpmax=69 / qpstep=4 / cplxblur=20.0 / qblur=0.5 / ip_ratio=1.40 / aq=1:1.00
Language : Russian
Default : Yes
Forced : No
Audio #1
ID : 2
Format : AC-3
Format/Info : Audio Coding 3
Mode extension : CM (complete main)
Format settings, Endianness : Big
Codec ID : A_AC3
Duration : 1 h 13 min
Bit rate mode : Constant
Bit rate : 448 kb/s
Channel(s) : 6 channels
Channel positions : Front: L C R, Side: L R, LFE
Sampling rate : 48.0 kHz
Frame rate : 31.250 FPS (1536 spf)
Bit depth : 16 bits
Compression mode : Lossy
Stream size : 234 MiB (10%)
Language : Russian
Default : Yes
Forced : No
Audio #2
ID : 3
Format : AC-3
Format/Info : Audio Coding 3
Mode extension : CM (complete main)
Format settings, Endianness : Big
Codec ID : A_AC3
Duration : 1 h 13 min
Bit rate mode : Constant
Bit rate : 448 kb/s
Channel(s) : 6 channels
Channel positions : Front: L C R, Side: L R, LFE
Sampling rate : 48.0 kHz
Frame rate : 31.250 FPS (1536 spf)
Bit depth : 16 bits
Compression mode : Lossy
Stream size : 234 MiB (10%)
Language : English
Default : No
Forced : No
Audio #3
ID : 4
Format : AC-3
Format/Info : Audio Coding 3
Mode extension : CM (complete main)
Format settings, Endianness : Big
Codec ID : A_AC3
Duration : 1 h 13 min
Bit rate mode : Constant
Bit rate : 448 kb/s
Channel(s) : 6 channels
Channel positions : Front: L C R, Side: L R, LFE
Sampling rate : 48.0 kHz
Frame rate : 31.250 FPS (1536 spf)
Bit depth : 16 bits
Compression mode : Lossy
Delay relative to video : 80 ms
Stream size : 234 MiB (10%)
Language : French
Default : No
Forced : No
Text #1
ID : 5
Format : UTF-8
Codec ID : S_TEXT/UTF8
Codec ID/Info : UTF-8 Plain Text
Duration : 1 h 10 min
Bit rate : 42 b/s
Count of elements : 426
Stream size : 22.1 KiB (0%)
Language : Russian
Default : No
Forced : No
Text #2
ID : 6
Format : UTF-8
Codec ID : S_TEXT/UTF8
Codec ID/Info : UTF-8 Plain Text
Duration : 1 h 12 min
Bit rate : 30 b/s
Count of elements : 450
Stream size : 16.5 KiB (0%)
Language : English
Default : No
Forced : No
Text #3
ID : 7
Format : UTF-8
Codec ID : S_TEXT/UTF8
Codec ID/Info : UTF-8 Plain Text
Duration : 1 h 12 min
Bit rate : 32 b/s
Count of elements : 449
Stream size : 17.3 KiB (0%)
Language : French
Default : No
Forced : No
Text #4
ID : 8
Format : UTF-8
Codec ID : S_TEXT/UTF8
Codec ID/Info : UTF-8 Plain Text
Duration : 1 h 12 min
Bit rate : 27 b/s
Count of elements : 451
Stream size : 14.8 KiB (0%)
Language : German
Default : No
Forced : No


_________________
Проголосуй за трекер Открытый торрент трекер - RUS-MEDIA.ORG

Проголосуй Открытый торрент трекер - RUS-MEDIA.ORG


Вернуться к началу
 Профиль Отправить личное сообщение  
 
   Похожие торренты   Автор   Торрент   Размер 
В этой теме нет новых непрочитанных сообщений. Аванти! / Avanti! [Мелодрама, комедия, экранизация, 1972] BDRip, Mvo

salma3

22 | 18

2.13 ГБ

В этой теме нет новых непрочитанных сообщений. Аванти! / Avanti! [Мелодрама, комедия, экранизация, 1972] BDRip 720p, Mvo

salma3

0 | 1

9.95 ГБ

В этой теме нет новых непрочитанных сообщений. Что они сделали с Соланж? / Cosa Avete Fatto A Solange? [Детектив, триллер, экранизация, 1972] BDRip 720p, Avo

salma3

0 | 0

8 ГБ

В этой теме нет новых непрочитанных сообщений. Избирательное сродство / Le affinità elettive [Драма, мелодрама, экранизация, 1996] DVDRip, Mvo

salma3

54 | 12

768.93 МБ

В этой теме нет новых непрочитанных сообщений. Земные желания / Earthly Possessions [Драма, мелодрама, криминал, экранизация, 1999] DVDRip-AVC, Dvo+Sub

salma3

33 | 5

1.99 ГБ

В этой теме нет новых непрочитанных сообщений. Завтра была война [драма, семейный, история, мелодрама, экранизация, 1987] DVDRip

salma3

17 | 6

1.44 ГБ

В этой теме нет новых непрочитанных сообщений. Широкое Саргассово море / Wide Sargasso Sea [Драма, мелодрама, экранизация, 2006] DVDRip, Mvo

salma3

89 | 5

1.38 ГБ


Начать новую тему Ответить на тему  [ 1 сообщение ] 




Для Мосгорсуда, Роскомнадзора и рекламодателей:: mosgorsud-torrent[собачка]yandex.ru
cron