Торрент файл
скачать торрент магнет ссылка Добавлен: 25 июн 2017, 21:27
Размер: 745.71 МБ
Сидеров: 76
Личеров: 14
Статус: (salma3)
Автор

СообщениеДобавлено: 25 июн 2017, 21:27 

Не в сети
Супермодератор
Аватара пользователя
Дата регистрации:
15 фев 2012, 16:44
Возраст: 29
Спасибо: 7377 / 2147
Сообщения: 75909
Год выхода: 1975
Жанр: Комедия
Режиссер: Виктор Титов

В ролях: Александр Калягин, Армен Джигарханян, Михаил Любезнов, Олег Шкловский, Михаил Козаков, Тамара Носова, Татьяна Веденеева, Татьяна Васильева, Галина Орлова (II), Валентин Гафт, Виктор Гайнов,

О фильме:
Действие фильма происходит в начале XX века. Безработный Бабс Баберлей (Александр Калягин) случайно попадает в богатый дом. Здесь его уже ждут два молодых джентльмена, правда, нужен им не Бабс, а тетушка-миллионерша донна Роза д’Альвадорец, вдова дона Педро из Бразилии, где «много-много диких обезьян», кем главный герой и становится, в надежде скрыться от полиции. Такая заваруха затеяна, дабы донна Роза, располагая своим авторитетом и состоянием, сумела убедить опекуна двух прелестных девушек, возлюбленных джентльменов, к коим и попал Бабс, разрешить замужество до 25-ти лет, сохраняя право на получение приданного. Тем временем, богатая «тётушка» привлекает к себе внимание хромого полковника Чеснея (Михаил Козаков) и вышеупомянутого опекуна судьи Кригса (Армен Джигарханян), страстно желающих поправить свое материальное положение. Кстати, Джигарханян, игравший Чеснея в театре, изначально пробовался на эту роль. Но режиссер Виктор Титов увидел его Кригсом. И все бы ничего… но тут приезжает настоящая тётя Роза. По мотивам пьесы Б. Томаса «Тетка Чарлея».



Страна: СССР
Продолжительность: 01:37:10
Перевод: Не требуется

Файл
Кодек: XviD
Качество: HDTVRip
Видео: 512x384 (1.33:1), 25 fps, XviD build 73 ~935 kbps avg, 0.19 bit/pixel
Звук: 48 kHz, MPEG Layer 3, 2 ch, ~128.00 kbps avg

Семпл

General
Complete name : D:Изготовление рипаZdravstvyiyte ia vasha tiotia!.(1975).HDTVRip by shkiper.avi
Format : AVI
Format/Info : Audio Video Interleave
File size : 746 MiB
Duration : 1 h 37 min
Overall bit rate : 1 073 kb/s
Writing application : VirtualDubMod 1.5.10.3 | www.virtualdub-fr.org || (build 2550/release)
Writing library : VirtualDubMod build 2550/release
Video
ID : 0
Format : MPEG-4 Visual
Format profile : Advanced Simple@L5
Format settings, BVOP : 1
Format settings, QPel : No
Format settings, GMC : No warppoints
Format settings, Matrix : Custom
Codec ID : XVID
Codec ID/Hint : XviD
Duration : 1 h 37 min
Bit rate : 935 kb/s
Width : 512 pixels
Height : 384 pixels
Display aspect ratio : 4:3
Frame rate : 25.000 FPS
Color space : YUV
Chroma subsampling : 4:2:0
Bit depth : 8 bits
Scan type : Progressive
Compression mode : Lossy
Bits/(Pixel*Frame) : 0.190
Stream size : 650 MiB (87%)
Writing library : XviD 73
Audio
ID : 1
Format : MPEG Audio
Format version : Version 1
Format profile : Layer 3
Codec ID : 55
Codec ID/Hint : MP3
Duration : 1 h 37 min
Bit rate mode : Constant
Bit rate : 128 kb/s
Channel(s) : 2 channels
Sampling rate : 48.0 kHz
Compression mode : Lossy
Stream size : 89.0 MiB (12%)
Alignment : Aligned on interleaves
Interleave, duration : 40 ms (1.00 video frame)
Interleave, preload duratio : 504 ms
Writing library : LAME3.99r
Encoding settings : -m s -V 4 -q 2 -lowpass 17 -b 128

Релиз от:


_________________
Проголосуй за трекер Открытый торрент трекер - RUS-MEDIA.ORG

Проголосуй Открытый торрент трекер - RUS-MEDIA.ORG


Вернуться к началу
 Профиль Отправить личное сообщение  
 
   Похожие торренты   Автор   Торрент   Размер 
В этой теме нет новых непрочитанных сообщений. Не может быть! [Мелодрама, комедия, 1975] HDTVRip

salma3

137 | 29

1.45 ГБ

В этой теме нет новых непрочитанных сообщений. Ранчо Делюкс / Rancho Deluxe [мелодрама, комедия, вестерн, 1975] HDTVRip, Dvo [НТВ+]

salma3

13 | 3

1.36 ГБ

В этой теме нет новых непрочитанных сообщений. Здравствуйте, меня зовут Дорис / Hello, My Name Is Doris [Драма, Мелодрама, Комедия, 2015] BDRip 720p, Mvo

salma3

48 | 3

3.86 ГБ

В этой теме нет новых непрочитанных сообщений. Здравствуйте, меня зовут Дорис / Hello, My Name Is Doris [Драма, мелодрама, комедия, 2015] WEB-DLRip, Mvo [iTunes]

salma3

13 | 0

1.46 ГБ

В этой теме нет новых непрочитанных сообщений. Лодка «Счастливая леди» / Леди Удача / Lucky Lady [драма, комедия, 1975] HDTVRip 720p, Mvo

salma3

61 | 21

2.04 ГБ

В этой теме нет новых непрочитанных сообщений. Ох и Ах / Oh and Ah (1975) HDTVRip-AVC от SDIncorporation

marya111

0 | 0

139.42 МБ

В этой теме нет новых непрочитанных сообщений. Аэропорт 1975 / Airport 1975 [боевик, триллер, драма, 1974] HDRip, Mvo

salma3

188 | 36

1.45 ГБ


Начать новую тему Ответить на тему  [ 1 сообщение ] 




Для Мосгорсуда, Роскомнадзора и рекламодателей:: mosgorsud-torrent[собачка]yandex.ru
cron