Торрент файл
скачать торрент магнет ссылка Добавлен: 19 апр 2017, 21:14
Размер: 1.33 ГБ
Сидеров: 29
Личеров: 10
Статус: (salma3)
Автор

СообщениеДобавлено: 19 апр 2017, 21:14 

Не в сети
Супермодератор
Аватара пользователя
Дата регистрации:
15 фев 2012, 16:44
Возраст: 28
Спасибо: 6640 / 2146
Сообщения: 45613
Формат: DVDRip-AVC
Режиссер: Лариса Шепитько
Жанр: драма, военный
Продолжительность: 01:49:14
Год выпуска: 1976

В ролях: Борис Плотников, Владимир Гостюхин, Анатолий Солоницын, Сергей Яковлев, Людмила Полякова, Виктория Гольдентул, Мария Виноградова, Николай Сектименко, Сергей Канищев, Владимир Лаптев

Описание: О судьбе двух партизан, попавших в плен к фашистам, о мужестве и трусости, о достоинстве и неодолимой силе духа.



Видео: 664x448@664x504 (4:3), 25 fps, AVC MPEG-4 (H.264), ~1515 kbps, 0.212 bit/pixel
Аудио: 48 kHz, AC3 Dolby Digital, 1/0 (C) ch, ~192 kbps

General
Complete name : D:\Voskhozhdeniye_DVDRip-AVC.[tRuAVC].mkv
Format : Matroska
File size : 1.33 GiB
Duration : 1h 49mn
Overall bit rate : 1 742 Kbps
Encoded date : UTC 2010-03-16 07:00:05
Writing application : mkvmerge v2.9.8 ('C'est le bon') built on Aug 13 2009 12:49:06
Writing library : libebml v0.7.7 + libmatroska v0.8.1
Cover : Yes / Yes

Video
ID : 1
Format : AVC
Format/Info : Advanced Video Codec
Format profile :
Format settings, CABAC : Yes
Format settings, ReFrames : 11 frames
Muxing mode : Container profile=Unknown@3.1
Codec ID : V_MPEG4/ISO/AVC
Duration : 1h 49mn
Bit rate : 1 515 Kbps
Width : 664 pixels
Height : 448 pixels
Display aspect ratio : 4:3
Frame rate : 23.976 fps
Resolution : 24 bits
Colorimetry : 4:2:0
Scan type : Progressive
Bits/(Pixel*Frame) : 0.212
Stream size : 1.16 GiB (87%)
Title : 664x448=> 664x504 (4/3); 1480 Kbps; 23,976 fps; 0,208 bpp
Writing library : x264 core 89 r1471kMod 1144615
Encoding settings : cabac=1 / ref=11 / deblock=1:-2:-1 / analyse=0x3:0x113 / me=umh / subme=10 / psy=1 / psy_rd=1.10:0.20 / mixed_ref=1 / me_range=24 / chroma_me=0 / trellis=2 / 8x8dct=1 / cqm=0 / deadzone=21,11 / fast_pskip=1 / chroma_qp_offset=9 / threads=6 / sliced_threads=0 / nr=0 / decimate=1 / interlaced=0 / constrained_intra=0 / bframes=11 / b_pyramid=2 / b_adapt=2 / b_bias=0 / direct=3 / wpredb=1 / wpredp=2 / keyint=250 / keyint_min=25 / scenecut=40 / intra_refresh=0 / rc_lookahead=60 / rc=crf / mbtree=1 / crf=20.0000 / qcomp=0.74 / qpmin=10 / qpmax=51 / qpstep=4 / ip_ratio=1.40 / aq=2:1.00 / pulldown=0
Language : Russian
Matrix coefficients : BT.470-6 System B, BT.470-6 System G, BT.601-6 625, BT.1358 625, BT.1700 625 PAL, BT.1700 625 SECAM, IEC 61966-2-4 601

Audio
ID : 2
Format : AC-3
Format/Info : Audio Coding 3
Codec ID : A_AC3
Duration : 1h 49mn
Bit rate mode : Constant
Bit rate : 192 Kbps
Channel(s) : 1 channel
Channel positions : C
Sampling rate : 48.0 KHz
Stream size : 150 MiB (11%)
Title : AC3; 192 Kbps; CBR; 1 ch
Language : Russian

Text
ID : 3
Format : UTF-8
Codec ID : S_TEXT/UTF8
Codec ID/Info : UTF-8 Plain Text
Language : English

Menu
00:00:00.000 : en:1.Into the woods
00:08:29.033 : en:2.Kurgaev farm
00:15:51.901 : en:3.Headman
00:19:42.368 : en:4."So you want to take me alive"
00:29:25.868 : en:5.Captured
00:42:30.202 : en:6.Kolya's escape
00:48:30.602 : en:7.Interrogation
00:58:39.369 : en:8."I think we'll save your life"
01:03:20.536 : en:9.The basement
01:16:44.337 : en:10.All the blame
01:21:29.337 : en:11.Sotnikov's statement
01:28:20.370 : en:12."We'll remember in our draves!"
01:40:47.537 : en:13.Judas
01:49:07.837 : en:14.Color bars





_________________
Проголосуй за трекер Открытый торрент трекер - RUS-MEDIA.ORG

Проголосуй Открытый торрент трекер - RUS-MEDIA.ORG



реклама партнёра


Вернуться к началу
 Профиль Отправить личное сообщение  
 
   Похожие торренты   Автор   Торрент   Размер 
В этой теме нет новых непрочитанных сообщений. Вершины Зеленой горы / Vrhovi Zelengore [драма, военный, 1976] DVDRip, Avo

salma3

41 | 17

1.42 ГБ

В этой теме нет новых непрочитанных сообщений. Асы в небе / Aces High [боевик, драма, военный, 1976] BDRip, Dvo

salma3

177 | 28

1.45 ГБ

В этой теме нет новых непрочитанных сообщений. Послание / The Message [драма, военный, биография, история, 1976] HDRip, Avo

salma3

50 | 18

2.18 ГБ

В этой теме нет новых непрочитанных сообщений. Мидуэй / Midway [боевик, драма, военный, история, 1976] BDRip 720p, Mvo+Avo+Sub

salma3

145 | 35

10.43 ГБ

В этой теме нет новых непрочитанных сообщений. Мидуэй / Midway [Военный, история, боевик, 1976] BDRemux 1080p, Mvo

salma3

31 | 21

31.45 ГБ

В этой теме нет новых непрочитанных сообщений. Орел приземлился / The Eagle Has Landed [Приключения, военный, 1976] BDRip 1080p, Dvo+Sub

salma3

146 | 51

10.83 ГБ

В этой теме нет новых непрочитанных сообщений. Белый Бим Черное ухо [драма, 1976] DVDRip

salma3

10 | 18

2.05 ГБ


Начать новую тему Ответить на тему  [ 1 сообщение ] 




Для Мосгорсуда, Роскомнадзора и рекламодателей:: mosgorsud-torrent[собачка]yandex.ru