Торрент файл
скачать торрент магнет ссылка Добавлен: 19 апр 2017, 21:11
Размер: 1.46 ГБ
Сидеров: 13
Личеров: 8
Статус: (salma3)
Автор

СообщениеДобавлено: 19 апр 2017, 21:11 

Не в сети
Супермодератор
Аватара пользователя
Дата регистрации:
15 фев 2012, 16:44
Возраст: 28
Спасибо: 7199 / 2147
Сообщения: 64757
Формат: DVDRip-AVC
Режиссер: Александр Роу
Жанр: фэнтези, семейный
Продолжительность: 01:16:01
Год выпуска: 1941

В ролях: Петр Алейников, Георгий Милляр, Марина Ковалева, Нина Урусова, Лев Потемкин, Михаил Трояновский, Александр Жуков, Николай Горлов, Александр Тимонтаев

Описание: Великолепный детский фильм, поставленный по мотивам всеми любимой сказки П. Ершова. В тридесятом царстве жил-был царь. И задумал тот царь взять в жены девушку-красу. А чтобы заполучить ее, послал за ней Иванушку, крестьянского сына… А если не выполнит Иван царского задания, не сносить тогда ему головы. Тут-то и пришел на помощь к Иванушке сказочный Конек-Горбунок…



Видео: 700x576 (1.30:1), 25 fps, AVC MPEG-4 (H.264), ~2522 kbps, 0.250 bit/pixel
Аудио: 48 kHz, AC3 Dolby Digital, 2/0 (L,R) ch, ~224 kbps

Формат : Matroska
Версия формата : Version 4 / Version 2
Размер файла : 1,46 Гбайт
Продолжительность : 1 ч. 16 м.
Общий поток : 2748 Кбит/сек
Дата кодирования : UTC 2015-12-24 00:36:31
Программа кодирования : mkvmerge v8.6.1 ('Flying') 64bit
Библиотека кодирования : libebml v1.3.3 + libmatroska v1.4.4

Видео
Идентификатор : 1
Формат : AVC
Формат/Информация : Advanced Video Codec
Профиль формата :
Параметр CABAC формата : Да
Параметр ReFrames формата : 14 кадров
Идентификатор кодека : V_MPEG4/ISO/AVC
Продолжительность : 1 ч. 16 м.
Битрейт : 2522 Кбит/сек
Ширина : 700 пикселей
Высота : 576 пикселей
Соотношение сторон : 1,295
Соотношение сторон в оригинале : 1,296
Режим частоты кадров : Постоянный
Частота кадров : 25,000 кадров/сек
Цветовое пространство : YUV
Субдискретизация насыщенности : 4:2:0
Битовая глубина : 8 бит
Тип развёртки : Прогрессивная
Бит/(Пиксели*Кадры) : 0.250
Размер потока : 1,34 Гбайт (92%)
Заголовок : FomaTash for rutracker.org
Библиотека кодирования : x264 core 146 r2538 121396c
Настройки программы : cabac=1 / ref=14 / deblock=1:-1:-1 / analyse=0x3:0x133 / me=umh / subme=9 / psy=1 / psy_rd=1.00:0.15 / mixed_ref=1 / me_range=32 / chroma_me=1 / trellis=2 / 8x8dct=1 / cqm=0 / deadzone=21,11 / fast_pskip=1 / chroma_qp_offset=-3 / threads=6 / lookahead_threads=1 / sliced_threads=0 / nr=0 / decimate=0 / interlaced=0 / bluray_compat=0 / constrained_intra=0 / bframes=15 / b_pyramid=2 / b_adapt=2 / b_bias=0 / direct=3 / weightb=1 / open_gop=0 / weightp=2 / keyint=240 / keyint_min=23 / scenecut=40 / intra_refresh=0 / rc_lookahead=40 / rc=2pass / mbtree=0 / bitrate=2522 / ratetol=1.0 / qcomp=0.60 / qpmin=10 / qpmax=51 / qpstep=4 / cplxblur=20.0 / qblur=0.5 / vbv_maxrate=50000 / vbv_bufsize=62500 / nal_hrd=none / filler=0 / ip_ratio=1.40 / pb_ratio=1.30 / aq=1:1.00
Язык : Russian
Default : Да
Forced : Нет

Аудио
Идентификатор : 2
Формат : AC-3
Формат/Информация : Audio Coding 3
Расширение режима : CM (complete main)
Параметр Endianness формата : Big
Идентификатор кодека : A_AC3
Продолжительность : 1 ч. 16 м.
Вид битрейта : Постоянный
Битрейт : 224 Кбит/сек
Каналы : 2 канала
Расположение каналов : Front: L R
Частота : 48,0 КГц
Частота кадров : 31,250 кадров/сек (1536 spf)
Метод сжатия : С потерями
Размер потока : 122 Мбайт (8%)
Заголовок : AC3-2 канала
Язык : Russian
Default : Да
Forced : Нет





_________________
Проголосуй за трекер Открытый торрент трекер - RUS-MEDIA.ORG

Проголосуй Открытый торрент трекер - RUS-MEDIA.ORG


Вернуться к началу
 Профиль Отправить личное сообщение  
 
   Похожие торренты   Автор   Торрент   Размер 
В этой теме нет новых непрочитанных сообщений. Дамбо / Dumbo [Семейный, мультфильм, музыка, 1941] HDRip, Dub

salma3

0 | 0

748.44 МБ

В этой теме нет новых непрочитанных сообщений. Проблемы - мой конёк / Trouble Is My Business (Том Конкл / Tom Konkle) [2018г., криминал, WEB-DLRip-AVC ] dvo

Alfredovich

0 | 58

1.46 ГБ

В этой теме нет новых непрочитанных сообщений. Когда встречаются леди / When Ladies Meet [Драма, мелодрама, комедия, 1941] DVDRip, Mvo

salma3

0 | 0

1.38 ГБ

В этой теме нет новых непрочитанных сообщений. Флаббер / Flubber [Фэнтези, комедия, семейный, 1997] DVDRip, Dub

salma3

14 | 1

1.37 ГБ

В этой теме нет новых непрочитанных сообщений. Школьный призрак / Das Schulgespenst [фэнтези, семейный, 1986] DVDRip-AVC, Dub

salma3

21 | 3

1.37 ГБ

В этой теме нет новых непрочитанных сообщений. Белоснежка / Snow White [Фэнтези, драма, семейный, 2001] DVDRip-AVC, Dvo

salma3

60 | 18

3.63 ГБ

В этой теме нет новых непрочитанных сообщений. Ангел-2 /Andel Páne 2 [фэнтези, комедия, семейный, 2016] DVDRip, Mvo

salma3

162 | 33

1.36 ГБ


Начать новую тему Ответить на тему  [ 1 сообщение ] 




Для Мосгорсуда, Роскомнадзора и рекламодателей:: mosgorsud-torrent[собачка]yandex.ru
cron