Торрент файл
скачать торрент магнет ссылка Добавлен: 18 апр 2017, 02:42
Размер: 2.92 ГБ
Сидеров: 19
Личеров: 10
Статус: (salma3)
Автор

СообщениеДобавлено: 18 апр 2017, 02:42 

Не в сети
Супермодератор
Аватара пользователя
Дата регистрации:
15 фев 2012, 16:44
Возраст: 28
Спасибо: 6644 / 2146
Сообщения: 46000
Формат: DVDRip-AVC
Режиссер: Михаил Калатозов
Жанр: приключения, драма
Продолжительность: 02:29:57
Год выпуска: 1969

В ролях: Питер Финч, Шон Коннери, Никита Михалков, Юрий Соломин, Донатас Банионис, Юрий Назаров, Владимир Смирнов, Клаудиа Кардинале

Описание:
Полярная арктическая экспедиция генерала Умберто Нобиле на дирижабле "Италия" терпит катастрофу. Спасать её отправляются великий полярный исследователь Руальд Амундсен и экипаж советского ледокола "Красин". Героический фильм о "героических двадцатых", о людях в экстремальных условиях.



Видео: 720x556@768x556 (1.38:1), 25 fps, AVC MPEG-4 (H.264), ~2336 kbps, 0.233 bit/pixel
Аудио: 48 kHz, AC3 Dolby Digital, 3/2 (L,C,R,l,r) + LFE ch, ~448 kbps

Общее
Уникальный идентификатор : 221071949331310766286960899762420089655 (0xA650E8A11875895A84385C797E468337)
Полное имя : C:\01. Красная палатка (1969).mkv
Формат : Matroska
Версия формата : Version 2
Размер файла : 1,43 Гбайт
Продолжительность : 1 ч. 13 м.
Общий поток : 2786 Кбит/сек
Дата кодирования : UTC 2012-09-10 18:17:51
Программа кодирования : mkvmerge v2.9.8 ('C'est le bon') built on Aug 13 2009 12:49:06
Библиотека кодирования : libebml v0.7.7 + libmatroska v0.8.1

Видео
Идентификатор : 1
Формат : AVC
Формат/Информация : Advanced Video Codec
Профиль формата :
Параметр CABAC формата : Да
Параметр ReFrames формата : 8 кадров
Идентификатор кодека : V_MPEG4/ISO/AVC
Продолжительность : 1 ч. 13 м.
Битрейт : 2336 Кбит/сек
Ширина : 720 пикселей
Высота : 556 пикселей
Соотношение сторон : 1,381
Частота кадров : 25,000 кадров/сек
Цветовое пространство : YUV
Субдискретизация насыщенности : 4:2:0
Битовая глубина : 8 бит
Тип развёртки : Прогрессивная
Бит/(Пиксели*Кадры) : 0.233
Размер потока : 1,17 Гбайт (82%)
Библиотека кодирования : x264 core 125 r2200 999b753
Настройки программы : cabac=1 / ref=8 / deblock=1:-1:-1 / analyse=0x3:0x133 / me=umh / subme=9 / psy=1 / psy_rd=1.00:0.15 / mixed_ref=1 / me_range=32 / chroma_me=1 / trellis=2 / 8x8dct=1 / cqm=0 / deadzone=21,11 / fast_pskip=1 / chroma_qp_offset=-3 / threads=3 / lookahead_threads=1 / sliced_threads=0 / nr=0 / decimate=1 / interlaced=0 / bluray_compat=0 / constrained_intra=0 / bframes=3 / b_pyramid=2 / b_adapt=2 / b_bias=0 / direct=3 / weightb=1 / open_gop=0 / weightp=2 / keyint=250 / keyint_min=25 / scenecut=40 / intra_refresh=0 / rc_lookahead=60 / rc=2pass / mbtree=1 / bitrate=2336 / ratetol=1.0 / qcomp=0.60 / qpmin=0 / qpmax=69 / qpstep=4 / cplxblur=20.0 / qblur=0.5 / ip_ratio=1.40 / aq=1:1.00
Язык : English
Default : Нет
Forced : Нет
Основные цвета : BT.709-5, BT.1361, IEC 61966-2-4, SMPTE RP177
Характеристики трансфера : BT.709-5, BT.1361
Коэффициенты матрицы : BT.709-5, BT.1361, IEC 61966-2-4 709, SMPTE RP177

Аудио
Идентификатор : 2
Формат : AC-3
Формат/Информация : Audio Coding 3
Расширение режима : CM (complete main)
Параметр Endianness формата : Big
Идентификатор кодека : A_AC3
Продолжительность : 1 ч. 13 м.
Вид битрейта : Постоянный
Битрейт : 448 Кбит/сек
Каналы : 6 каналов
Расположение каналов : Front: L C R, Side: L R, LFE
Частота : 48,0 КГц
Битовая глубина : 16 бит
Метод сжатия : С потерями
Размер потока : 235 Мбайт (16%)
Default : Да
Forced : Нет





_________________
Проголосуй за трекер Открытый торрент трекер - RUS-MEDIA.ORG

Проголосуй Открытый торрент трекер - RUS-MEDIA.ORG



реклама партнёра


Вернуться к началу
 Профиль Отправить личное сообщение  
 
   Похожие торренты   Автор   Торрент   Размер 
В этой теме нет новых непрочитанных сообщений. Сто винтовок / 100 Rifles [Боевик, вестерн, приключения, 1969] DVDRip, Avo

salma3

1 | 0

1.45 ГБ

В этой теме нет новых непрочитанных сообщений. Пираты кровавой реки / Pirates of Blood River [Приключения, драма, 1969] Blu-ray 1080p, Mvo

salma3

5 | 13

22.57 ГБ

В этой теме нет новых непрочитанных сообщений. С Новым годом! Сборник мультфильмов (Мстислав Пащенко, Владимир Дегтярёв, Леонид Амальрик, Борис Дежкин) [1950-1969, Приключения, DVDRip]

Nickolas3435

269 | 11

1.36 ГБ

В этой теме нет новых непрочитанных сообщений. Ангелы ада `69 / Hell's Angels '69 [драма, боевик, 1969] DVDRip, Mvo

salma3

121 | 25

1.46 ГБ

В этой теме нет новых непрочитанных сообщений. Пассажир дождя / Le passager de la pluie [триллер, драма, криминал, 1969] DVDRip-AVC, Dvo+Avo+Sub

salma3

83 | 20

2.28 ГБ

В этой теме нет новых непрочитанных сообщений. Сто винтовок / 100 Rifles [приключения, вестерн, военный, 1969] BDRip, Mvo+Dvo

salma3

85 | 29

1.45 ГБ

В этой теме нет новых непрочитанных сообщений. Людоед / Shark! [боевик, триллер, приключения, 1969] HDRip, Mvo

salma3

178 | 15

1.45 ГБ


Начать новую тему Ответить на тему  [ 1 сообщение ] 




Для Мосгорсуда, Роскомнадзора и рекламодателей:: mosgorsud-torrent[собачка]yandex.ru