Торрент файл
скачать торрент магнет ссылка Добавлен: 30 мар 2017, 14:14
Размер: 1.45 ГБ
Сидеров: 7
Личеров: 4
Статус: (salma3)
Автор

СообщениеДобавлено: 30 мар 2017, 14:14 

В сети
Супермодератор
Аватара пользователя
Дата регистрации:
15 фев 2012, 16:44
Возраст: 28
Спасибо: 7224 / 2147
Сообщения: 67853
Режиссер: Борис Григорьев
Жанр: криминал
Продолжительность: 01:23:31
Год выпуска: 1980

В ролях: Василий Лановой, Георгий Юматов, Евгений Герасимов, Всеволод Кузнецов, Дмитрий Джаяни, Всеволод Ларионов, Иван Рыжов, Маргарита Гладунко, Ян Янакиев

Описание:
На Пригорской ювелирной фабрике обнаружены крупные хищения. В Москве совершены два убийства и попытка изнасилования. Казалось бы, что общего между этими преступлениями? Но однажды взаимосвязь проявится, и Костенко срочно вылетит в Сухуми…



Формат: DVDRip-AVC
Видео: 706x366@754x366 (2.0:1), 25 fps, AVC MPEG-4 (H.264), ~2107 kbps, 0.326 bit/pixel
Аудио: 48 kHz, AC3 Dolby Digital, 3/2 (L,C,R,l,r) + LFE ch, ~384 kbps

Общее
Уникальный идентификатор : 226823142172393700417089254140439603569 (0xAAA48C5425A31B049386AEC8E806A971)
Полное имя : F:\Ogareva,6_1980-DVDRip-AVC.mkv
Формат : Matroska
Версия формата : Version 2
Размер файла : 1,45 Гбайт
Продолжительность : 1 ч. 23 м.
Общий поток : 2493 Кбит/сек
Дата кодирования : UTC 2014-01-12 06:25:42
Программа кодирования : mkvmerge v5.1.0 ('And so it goes') built on Nov 28 2011 23:58:28
Библиотека кодирования : libebml v1.2.3 + libmatroska v1.3.0

Видео
Идентификатор : 1
Формат : AVC
Формат/Информация : Advanced Video Codec
Профиль формата :
Параметр CABAC формата : Да
Параметр ReFrames формата : 15 кадров
Идентификатор кодека : V_MPEG4/ISO/AVC
Продолжительность : 1 ч. 23 м.
Битрейт : 2107 Кбит/сек
Ширина : 706 пикселей
Высота : 366 пикселей
Соотношение сторон : 2,060
Соотношение сторон в оригинале : 2,058
Режим частоты кадров : Постоянный
Частота кадров : 25,000 кадров/сек
Цветовое пространство : YUV
Субдискретизация насыщенности : 4:2:0
Битовая глубина : 8 бит
Тип развёртки : Прогрессивная
Бит/(Пиксели*Кадры) : 0.326
Размер потока : 1,20 Гбайт (83%)
Библиотека кодирования : x264 core 133 r2334 a3ac64b
Настройки программы : cabac=1 / ref=15 / deblock=1:-1:-1 / analyse=0x3:0x133 / me=umh / subme=11 / psy=1 / psy_rd=1.05:0.15 / mixed_ref=1 / me_range=24 / chroma_me=1 / trellis=2 / 8x8dct=1 / cqm=0 / deadzone=21,11 / fast_pskip=0 / chroma_qp_offset=-3 / threads=12 / lookahead_threads=2 / sliced_threads=0 / nr=0 / decimate=0 / interlaced=0 / bluray_compat=0 / constrained_intra=0 / bframes=11 / b_pyramid=2 / b_adapt=2 / b_bias=0 / direct=3 / weightb=1 / open_gop=0 / weightp=2 / keyint=250 / keyint_min=25 / scenecut=40 / intra_refresh=0 / rc_lookahead=60 / rc=2pass / mbtree=1 / bitrate=2107 / ratetol=1.0 / qcomp=0.65 / qpmin=0 / qpmax=41 / qpstep=4 / cplxblur=20.0 / qblur=0.5 / ip_ratio=1.35 / aq=1:0.90
Default : Да
Forced : Нет
Основные цвета : BT.601 PAL
Характеристики трансфера : BT.470 System B, BT.470 System G
Коэффициенты матрицы : BT.601

Аудио
Идентификатор : 2
Формат : AC-3
Формат/Информация : Audio Coding 3
Расширение режима : CM (complete main)
Параметр Endianness формата : Big
Идентификатор кодека : A_AC3
Продолжительность : 1 ч. 23 м.
Вид битрейта : Постоянный
Битрейт : 384 Кбит/сек
Каналы : 6 каналов
Расположение каналов : Front: L C R, Side: L R, LFE
Частота : 48,0 КГц
Битовая глубина : 16 бит
Метод сжатия : С потерями
Размер потока : 229 Мбайт (15%)
Язык : Russian
Default : Да
Forced : Нет





_________________
Проголосуй за трекер Открытый торрент трекер - RUS-MEDIA.ORG

Проголосуй Открытый торрент трекер - RUS-MEDIA.ORG


Вернуться к началу
 Профиль Отправить личное сообщение  
 
   Похожие торренты   Автор   Торрент   Размер 
В этой теме нет новых непрочитанных сообщений. Глория / Gloria [Криминал, драма, триллер, 1980] WEB-DL 1080p, Mvo

salma3

0 | 1

13.44 ГБ

В этой теме нет новых непрочитанных сообщений. Непокорный / Неповиновение / Defiance [драма, криминал, 1980] BDRip, Dvo [НТВ+]

salma3

37 | 7

1.46 ГБ

В этой теме нет новых непрочитанных сообщений. Укуренные 3 / Nice Dreams [комедия, криминал, 1980] WEB-DL 1080p, Avo

salma3

87 | 4

3.34 ГБ

В этой теме нет новых непрочитанных сообщений. Укол зонтиком / Le Coup Du Parapluie [Комедия, криминал, 1980] Blu-ray 1080p, Dub

salma3

0 | 0

27.81 ГБ

В этой теме нет новых непрочитанных сообщений. Глория / Gloria [Криминал, драма, триллер, 1980] WEB-DLRip 720p, Mvo

salma3

0 | 0

6.47 ГБ

В этой теме нет новых непрочитанных сообщений. Глория / Gloria [Криминал, драма, триллер, 1980] WEB-DLRip 720p, Mvo

salma3

0 | 0

7.08 ГБ

В этой теме нет новых непрочитанных сообщений. Инспектор-разиня / Inspecteur la Bavure [комедия, криминал, 1980] BDRemux 1080р, Dub

salma3

0 | 0

25.56 ГБ


Начать новую тему Ответить на тему  [ 1 сообщение ] 




Для Мосгорсуда, Роскомнадзора и рекламодателей:: mosgorsud-torrent[собачка]yandex.ru
cron