Торрент файл
скачать торрент магнет ссылка Добавлен: 10 мар 2017, 12:10
Размер: 2.18 ГБ
Сидеров: 23
Личеров: 11
Статус: (salma3)
Автор

СообщениеДобавлено: 10 мар 2017, 12:10 

Не в сети
Супермодератор
Аватара пользователя
Дата регистрации:
15 фев 2012, 16:44
Возраст: 28
Спасибо: 6640 / 2146
Сообщения: 45613
Режиссер: Ян Фрид
Жанр: мюзикл, комедия
Продолжительность: 01:08:24, 01:05:37
Год выпуска: 1989

В ролях: Михаил Боярский, Анна Самохина, Юрий Богатырев, Наталья Лапина, Игорь Дмитриев, Виктория Горшенина, Михаил Светин, Юрий Дедович, Василий Леонов, Андрей Краско

Описание: Испания XVIII век. Обедневший граф любит уличную танцовщицу, а она — его. Но их союзу противостоит самодовольный и беспринципный испанский король! Он положил глаз на прекрасную барышню и посадил несчастного графа в тюрьму. Дни узника сочтены… Однако настоящая любовь способна преодолеть и не такие преграды!



Формат: DVDRip-AVC
Видео: 704x564 (4:3), 25 fps, AVC MPEG-4 (H.264), ~1877 kbps, 0.189 bit/pixel
Аудио: 48 kHz, AC3 Dolby Digital, 3/2 (L,C,R,l,r) + LFE ch, ~448 kbps

Общее
Полное имя : Don.Sezar.de.Bazan.1989.DVDRip-AVC_[New-team]_by_AVP_Studio1-я серия.mkv
Формат : Matroska
Версия формата : Version 2
Размер файла : 1,11 Гбайт
Продолжительность : 1 ч. 8 м.
Общий поток : 2325 Кбит/сек
Дата кодирования : UTC 2017-03-06 17:31:44
Программа кодирования : mkvmerge v6.1.0 ('Old Devil') built on Mar 4 2013 09:10:42
Библиотека кодирования : libebml v1.3.0 + libmatroska v1.4.0

Видео
Идентификатор : 1
Формат : AVC
Формат/Информация : Advanced Video Codec
Профиль формата :
Параметр CABAC формата : Да
Параметр ReFrames формата : 10 кадров
Идентификатор кодека : V_MPEG4/ISO/AVC
Продолжительность : 1 ч. 8 м.
Битрейт : 1877 Кбит/сек
Ширина : 704 пикселя
Высота : 564 пикселя
Соотношение сторон : 4:3
Режим частоты кадров : Постоянный
Частота кадров : 25,000 кадров/сек
Цветовое пространство : YUV
Субдискретизация насыщенности : 4:2:0
Битовая глубина : 8 бит
Тип развёртки : Прогрессивная
Бит/(Пиксели*Кадры) : 0.189
Размер потока : 896 Мбайт (79%)
Библиотека кодирования : x264 core 148 r2597 e86f3a1
Настройки программы : cabac=1 / ref=10 / deblock=1:-2:-1 / analyse=0x3:0x113 / me=umh / subme=10 / psy=1 / psy_rd=1.00:0.00 / mixed_ref=1 / me_range=32 / chroma_me=1 / trellis=2 / 8x8dct=1 / cqm=0 / deadzone=21,11 / fast_pskip=1 / chroma_qp_offset=-2 / threads=6 / lookahead_threads=1 / sliced_threads=0 / nr=0 / decimate=0 / interlaced=0 / bluray_compat=0 / constrained_intra=0 / bframes=8 / b_pyramid=2 / b_adapt=2 / b_bias=0 / direct=3 / weightb=1 / open_gop=0 / weightp=2 / keyint=250 / keyint_min=25 / scenecut=40 / intra_refresh=0 / rc=2pass / mbtree=0 / bitrate=1877 / ratetol=1.0 / qcomp=0.60 / qpmin=0 / qpmax=69 / qpstep=4 / cplxblur=20.0 / qblur=0.5 / ip_ratio=1.40 / pb_ratio=1.30 / aq=1:1.00
Default : Да
Forced : Нет

Аудио
Идентификатор : 2
Формат : AC-3
Формат/Информация : Audio Coding 3
Расширение режима : CM (complete main)
Параметр Endianness формата : Big
Идентификатор кодека : A_AC3
Продолжительность : 1 ч. 8 м.
Вид битрейта : Постоянный
Битрейт : 448 Кбит/сек
Каналы : 6 каналов
Расположение каналов : Front: L C R, Side: L R, LFE
Частота : 48,0 КГц
Частота кадров : 31,250 кадров/сек (1536 spf)
Битовая глубина : 16 бит
Метод сжатия : С потерями
Размер потока : 219 Мбайт (19%)
Default : Да
Forced : Нет





_________________
Проголосуй за трекер Открытый торрент трекер - RUS-MEDIA.ORG

Проголосуй Открытый торрент трекер - RUS-MEDIA.ORG



реклама партнёра


Вернуться к началу
 Профиль Отправить личное сообщение  
 
   Похожие торренты   Автор   Торрент   Размер 
В этой теме нет новых непрочитанных сообщений. Дон Сезар де Базан (2 серии из 2) [мюзикл, комедия, 1989] DVDRip

salma3

16 | 7

1.46 ГБ

В этой теме нет новых непрочитанных сообщений. Галавант [02 сезон: 01-10 серии из 10] [мюзикл, комедия, 2016] WEB-DLRip [GladiolusTV]

Dracon

7 | 8

2.63 ГБ

В этой теме нет новых непрочитанных сообщений. Покровские ворота (2 серии из 2) [мюзикл, драма, мелодрама, комедия, 1982] BDRip

salma3

16 | 5

2.18 ГБ

В этой теме нет новых непрочитанных сообщений. Покровские ворота (2 серии из 2) [мюзикл, драма, мелодрама, комедия, 1982] BDRip-AVC

salma3

19 | 8

2.88 ГБ

В этой теме нет новых непрочитанных сообщений. Большой веселый мюзикл / The Big Gay Musical [Комедия, мюзикл, драма, мелодрама, музыка, 2009] BDRip 720p, Avo+Sub

salma3

20 | 5

3.82 ГБ

В этой теме нет новых непрочитанных сообщений. Внеклассный мюзикл / Sunday School Musical [мюзикл, драма, 2008] DVDRip, Mvo

salma3

5 | 3

1.37 ГБ

В этой теме нет новых непрочитанных сообщений. Стрелки / The Shooters [комедия, военный, 1989] DVDRip, Avo

salma3

5 | 1

1.47 ГБ


Начать новую тему Ответить на тему  [ 1 сообщение ] 




Для Мосгорсуда, Роскомнадзора и рекламодателей:: mosgorsud-torrent[собачка]yandex.ru