Торрент файл
скачать торрент магнет ссылка Добавлен: 05 мар 2017, 00:18
Размер: 1.09 ГБ
Сидеров: 20
Личеров: 5
Статус: (salma3)
Автор

СообщениеДобавлено: 05 мар 2017, 00:18 

Не в сети
Супермодератор
Аватара пользователя
Дата регистрации:
15 фев 2012, 16:44
Возраст: 28
Спасибо: 6643 / 2146
Сообщения: 45809
Режиссер: Ян Фрид
Жанр: драма, история, военный, приключения
Продолжительность: 01:28:44
Год выпуска: 1957

В ролях: Иосиф Кутянский, Павел Кадочников, Леонид Кмит, Николай Макеев, Михаил Иванов, Инна Выходцева, Наталья Каташева, Герман Орлов, Владислав Стржельчик, Ефим Копелян, Константин Адашевский, Александр Борисов, Адольф Шестаков, Владимир Чобур, Борис Смирнов, Леонид Любашевский, Михаил Екатерининский, Н. Вакуров

Описание: [Фильм о борьбе моряков Балтийского флота за революционный Петроград осенью 1917 года. В центре фильма судьбы матроса и морского офицера, которые встают в ряды борцов за революцию.




Формат: DVDRip
Видео: 672x496 (4:3), 25 fps, XviD build 73 ~1554 kbps avg, 0.187 bit/pixel
Аудио: 48 kHz, AC3 Dolby Digital, 2/0 (L,R) ch, ~192 kbps



Общее
Полное имя : Baltiyskaya.slava.1957.DVDRip.avi
Формат : AVI
Формат/Информация : Audio Video Interleave
Размер файла : 1,09 Гбайт
Продолжительность : 1 ч. 28 м.
Общий поток : 1756 Кбит/сек
Программа кодирования : VirtualDubMod 1.5.10.3 | www.virtualdub-fr.org || (build 2550/release)
Библиотека кодирования : VirtualDubMod build 2550/release

Видео
Идентификатор : 0
Формат : MPEG-4 Visual
Профиль формата : Advanced Simple@L5
Параметр BVOP формата : 1
Параметр QPel формата : Нет
Параметр GMC формата : Без точки перехода
Параметр матрицы формата : Выборочная
Идентификатор кодека : XVID
Идентификатор кодека/Подсказка : XviD
Продолжительность : 1 ч. 28 м.
Битрейт : 1554 Кбит/сек
Ширина : 672 пикселя
Высота : 496 пикселей
Соотношение сторон : 4:3
Частота кадров : 25,000 кадров/сек
Цветовое пространство : YUV
Субдискретизация насыщенности : 4:2:0
Битовая глубина : 8 бит
Тип развёртки : Прогрессивная
Метод сжатия : С потерями
Бит/(Пиксели*Кадры) : 0.187
Размер потока : 986 Мбайт (89%)
Библиотека кодирования : XviD 73

Аудио
Идентификатор : 1
Формат : AC-3
Формат/Информация : Audio Coding 3
Расширение режима : CM (complete main)
Параметр Endianness формата : Big
Идентификатор кодека : 2000
Продолжительность : 1 ч. 28 м.
Вид битрейта : Постоянный
Битрейт : 192 Кбит/сек
Каналы : 2 канала
Расположение каналов : Front: L R
Частота : 48,0 КГц
Частота кадров : 31,250 кадров/сек (1536 spf)
Битовая глубина : 16 бит
Метод сжатия : С потерями
Размер потока : 122 Мбайт (11%)
Выравнивание : Разделение по промежуткам
Продолжительность промежутка : 40 мс. (1,00 видеокадр)
Время предзагрузки промежутка : 500 мс




_________________
Проголосуй за трекер Открытый торрент трекер - RUS-MEDIA.ORG

Проголосуй Открытый торрент трекер - RUS-MEDIA.ORG



реклама партнёра


Вернуться к началу
 Профиль Отправить личное сообщение  
 
   Похожие торренты   Автор   Торрент   Размер 
В этой теме нет новых непрочитанных сообщений. Балтийская слава [драма, история, военный, приключения, 1957] DVDRip-AVC

salma3

36 | 12

1.09 ГБ

В этой теме нет новых непрочитанных сообщений. Маленький большой человек / Little Big Man [драма, приключения, вестерн, военный, история, 1970] BDRip 1080p, Mvo+Avo+Sub

salma3

17 | 1

7.01 ГБ

В этой теме нет новых непрочитанных сообщений. Тарас Бульба / Taras Bulba [драма, приключения, военный, история, 1962] HDTV 1080i, Mvo

salma3

84 | 24

7.27 ГБ

В этой теме нет новых непрочитанных сообщений. Барри Линдон / Barry Lyndon [драма, приключения, военный, история, 1975] BDRemux 1080p, Mvo

salma3

2 | 1

41.09 ГБ

В этой теме нет новых непрочитанных сообщений. Каджаки: Правдивая история / Kajaki (Пол Катис) [триллер, драма, приключения, военный, 2014] HDRip [Lucky Strike]

Dracon

1450 | 53

1.46 ГБ

В этой теме нет новых непрочитанных сообщений. Каджаки: Правдивая история / Kajaki (Пол Катис) [триллер, драма, приключения, военный, 2014] HDRip [Lucky Strike]

Dracon

211 | 5

2.05 ГБ

В этой теме нет новых непрочитанных сообщений. Каджаки: Правдивая история / Kajaki (Пол Катис) [триллер, драма, приключения, военный, 2014] BDRip 720p [Lucky Strike]

Dracon

15 | 2

6.21 ГБ


Начать новую тему Ответить на тему  [ 1 сообщение ] 




Для Мосгорсуда, Роскомнадзора и рекламодателей:: mosgorsud-torrent[собачка]yandex.ru