Торрент файл
скачать торрент магнет ссылка Добавлен: 01 мар 2017, 23:12
Размер: 742.6 МБ
Сидеров: 40
Личеров: 5
Статус: (salma3)
Автор

СообщениеДобавлено: 01 мар 2017, 23:12 

Не в сети
Супермодератор
Аватара пользователя
Дата регистрации:
15 фев 2012, 16:44
Возраст: 28
Спасибо: 6644 / 2146
Сообщения: 45843
Режиссер: Михаил Винярский
Жанр: драма
Продолжительность: 01:22:25
Год выпуска: 1955

В ролях: Олег Жаков, Роза Балашова, Олег Туманов, Лев Фричинский, Екатерина Савинова, Владимир Балашов, Виктор Кулаков, Александр Стародуб

Описание:
В одном из южных портов органами госбезопасности задержан шпион с планом объекта диверсии - плавучего дока, подготовленного к буксировке в отдаленный порт. Майор Людов по ряду признаков догадывается, что в городе действует целая группа врагов. С помощью Ракитиной, библиотекаря плавучего дока, Людову и его помощнику лейтенанту госбезопасности Савельеву удается распутать клубок шпионских связей и предотвратить преступление.



Формат: DVDRip
Видео: 640x480 (1.33:1), 25 fps, XviD build 73 ~1122 kbps avg, 0.146 bit/pixel
Аудио: 48 kHz, MPEG Layer 3, 2 ch, ~128.00 kbps avg

Общее
Полное имя : Ten.u.pirsa.1955.DVDRip-745.avi
Формат : AVI
Формат/Информация : Audio Video Interleave
Размер файла : 743 Мбайт
Продолжительность : 1 ч. 22 м.
Общий поток : 1260 Кбит/сек
Программа кодирования : VirtualDubMod 1.5.10.3 | www.virtualdub-fr.org || (build 2550/release)
Библиотека кодирования : VirtualDubMod build 2550/release

Видео
Идентификатор : 0
Формат : MPEG-4 Visual
Профиль формата : Advanced Simple@L5
Параметр BVOP формата : 1
Параметр QPel формата : Нет
Параметр GMC формата : Без точки перехода
Параметр матрицы формата : Выборочная
Идентификатор кодека : XVID
Идентификатор кодека/Подсказка : XviD
Продолжительность : 1 ч. 22 м.
Битрейт : 1122 Кбит/сек
Ширина : 640 пикселей
Высота : 480 пикселей
Соотношение сторон : 4:3
Частота кадров : 25,000 кадров/сек
Цветовое пространство : YUV
Субдискретизация насыщенности : 4:2:0
Битовая глубина : 8 бит
Тип развёртки : Прогрессивная
Метод сжатия : С потерями
Бит/(Пиксели*Кадры) : 0.146
Размер потока : 661 Мбайт (89%)
Библиотека кодирования : XviD 1.2.1 (UTC 2008-12-04)

Аудио
Идентификатор : 1
Формат : MPEG Audio
Версия формата : Version 1
Профиль формата : Layer 3
Идентификатор кодека : 55
Идентификатор кодека/Подсказка : MP3
Продолжительность : 1 ч. 22 м.
Вид битрейта : Постоянный
Битрейт : 128 Кбит/сек
Каналы : 2 канала
Частота : 48,0 КГц
Метод сжатия : С потерями
Размер потока : 75,4 Мбайт (10%)
Выравнивание : Соединение по промежуткам
Продолжительность промежутка : 40 мс. (1,00 видеокадр)
Время предзагрузки промежутка : 504 мс.
Библиотека кодирования : LAME3.99r
Настройки программы : -m s -V 4 -q 2 -lowpass 17 -b 128




_________________
Проголосуй за трекер Открытый торрент трекер - RUS-MEDIA.ORG

Проголосуй Открытый торрент трекер - RUS-MEDIA.ORG



реклама партнёра


Вернуться к началу
 Профиль Отправить личное сообщение  
 
   Похожие торренты   Автор   Торрент   Размер 
В этой теме нет новых непрочитанных сообщений. Тень «Полярной звезды» / The Shadow in the North [триллер, драма, криминал, 2007] DVDRip-AVC, Mvo

salma3

109 | 21

1.97 ГБ

В этой теме нет новых непрочитанных сообщений. Тень [Драма, 2016] WEB-DLRip, [iTunes]

salma3

479 | 29

1.37 ГБ

В этой теме нет новых непрочитанных сообщений. Тень [Драма, 2016] WEB-DL 720p, [iTunes]

salma3

77 | 14

3.54 ГБ

В этой теме нет новых непрочитанных сообщений. Тень [Драма, 2016] WEB-DLRip, [iTunes]

salma3

0 | 0

2.05 ГБ

В этой теме нет новых непрочитанных сообщений. Тень внутри / The Shadow Within [ужасы, триллер, 2007] DVDRip, Avo

salma3

75 | 43

1.46 ГБ

В этой теме нет новых непрочитанных сообщений. Свет и тень маяка [1-46 из 250] [Драма, криминал, 2015] HDTVRip

Dracon

В этой теме нет новых непрочитанных сообщений. Свет и тень маяка [1-42 из 250] (Наталия Микрюкова, Сергей Терещук) [Драма, криминал, 2015] SATRip

Dracon

21 | 22

22.69 ГБ


Начать новую тему Ответить на тему  [ 1 сообщение ] 




Для Мосгорсуда, Роскомнадзора и рекламодателей:: mosgorsud-torrent[собачка]yandex.ru