Торрент файл
скачать торрент магнет ссылка Добавлен: 27 фев 2017, 12:39
Размер: 2.98 ГБ
Сидеров: 145
Личеров: 11
Статус: (salma3)
Автор

СообщениеДобавлено: 27 фев 2017, 12:39 

Не в сети
Супермодератор
Аватара пользователя
Дата регистрации:
15 фев 2012, 16:44
Возраст: 28
Спасибо: 6584 / 2144
Сообщения: 44064
Перевод: Не требуется
Субтитры: Отсутствуют
Формат: HDTV, MKV, H.264, AC3
Страна: СССР
Режиссер: Василий Шукшин
Жанр: драма
Продолжительность: 01:41:44
Год выпуска: 1973

В ролях: Василий Шукшин, Лидия Федосеева-Шукшина, Иван Рыжов, Мария Скворцова, Алексей Ванин, Мария Виноградова, Офимия Быстрова, Лев Дуров, Николай Граббе, Георгий Бурков

Описание: Выйдя из тюрьмы, Егор Прокудин, по кличке Горе, решает податься в деревню, где живет синеглазая незнакомка Люба, с которой он переписывался — ведь надо немного переждать и осмотреться. Но жизнь в деревне рушит все планы Егора, и он решает навсегда порвать с прошлым. Теперь у него есть друзья, работа. Он любит Любу. Однако дружки Егора упорно не отпускают его…



Видео: 960x720p (4:3), 25 fps, AVC MPEG-4 (H.264), ~4000 kbps, 0.231 bit/pixel
Аудио: Русский : 48 kHz, AC3 Dolby Digital, 2 ch, ~192 kbps

Общее
Уникальный идентификатор : 224412295760731802088368201282304272590 (0xA8D43C6C6CB1590690C50B25C436E8CE)
Полное имя : D:Калина красная_1973-HDTVRip-AVC_ExKinoRay.mkv
Формат : Matroska
Версия формата : Version 2
Размер файла : 2,98 Гбайт
Продолжительность : 1 ч. 41 м.
Общий поток : 4194 Кбит/сек
Дата кодирования : UTC 2016-05-24 12:27:28
Программа кодирования : mkvmerge v5.8.0 ('No Sleep / Pillow') built on Sep 2 2012 15:37:04
Библиотека кодирования : libebml v1.2.3 + libmatroska v1.3.0

Видео
Идентификатор : 1
Формат : AVC
Формат/Информация : Advanced Video Codec
Профиль формата :
Параметр CABAC формата : Да
Параметр ReFrames формата : 12 кадров
Идентификатор кодека : V_MPEG4/ISO/AVC
Продолжительность : 1 ч. 41 м.
Битрейт : 4000 Кбит/сек
Ширина : 960 пикселей
Высота : 720 пикселей
Соотношение сторон : 4:3
Режим частоты кадров : Постоянный
Частота кадров : 25,000 кадров/сек
Цветовое пространство : YUV
Субдискретизация насыщенности : 4:2:0
Битовая глубина : 8 бит
Тип развёртки : Прогрессивная
Бит/(Пиксели*Кадры) : 0.231
Размер потока : 2,78 Гбайт (93%)
Библиотека кодирования : x264 core 148 r2638 7599210
Настройки программы : cabac=1 / ref=12 / deblock=1:-2:-2 / analyse=0x3:0x113 / me=umh / subme=10 / psy=1 / psy_rd=1.05:0.10 / mixed_ref=1 / me_range=32 / chroma_me=1 / trellis=2 / 8x8dct=1 / cqm=0 / deadzone=21,11 / fast_pskip=0 / chroma_qp_offset=-3 / threads=12 / lookahead_threads=2 / sliced_threads=0 / nr=0 / decimate=0 / interlaced=0 / bluray_compat=0 / constrained_intra=0 / bframes=9 / b_pyramid=2 / b_adapt=2 / b_bias=0 / direct=3 / weightb=1 / open_gop=0 / weightp=2 / keyint=250 / keyint_min=25 / scenecut=40 / intra_refresh=0 / rc=2pass / mbtree=0 / bitrate=4000 / ratetol=1.0 / qcomp=0.63 / qpmin=0 / qpmax=39 / qpstep=4 / cplxblur=20.0 / qblur=0.5 / ip_ratio=1.25 / pb_ratio=1.30 / aq=1:0.90
Язык : English
Default : Да
Forced : Нет
Цветовой диапазон : Limited
Основные цвета : BT.709
Характеристики трансфера : BT.709
Коэффициенты матрицы : BT.709

Аудио
Идентификатор : 2
Формат : AC-3
Формат/Информация : Audio Coding 3
Расширение режима : CM (complete main)
Параметр Endianness формата : Big
Идентификатор кодека : A_AC3
Продолжительность : 1 ч. 41 м.
Вид битрейта : Постоянный
Битрейт : 192 Кбит/сек
Каналы : 2 канала
Расположение каналов : Front: L R
Частота : 48,0 КГц
Метод сжатия : С потерями
Размер потока : 140 Мбайт (5%)
Язык : Russian
Default : Да





_________________
Проголосуй за трекер Открытый торрент трекер - RUS-MEDIA.ORG

Проголосуй Открытый торрент трекер - RUS-MEDIA.ORG



реклама партнёра


Вернуться к началу
 Профиль Отправить личное сообщение  
 
   Похожие торренты   Автор   Торрент   Размер 
В этой теме нет новых непрочитанных сообщений. Вечный зов [01-19 из 19] (Владимир Краснопольский, Валерий Усков) [Киноповесть, военный, драма, исторический, семейный, 1973-1983] HDTV 1080i

Dracon

43 | 25

78.59 ГБ

В этой теме нет новых непрочитанных сообщений. Харли Дэвидсон с синим отливом / Парни в синей форме / Electra Glide in Blue [триллер, драма, криминал, 1973] HDTV 1080i, Dvo

salma3

14 | 65

4.01 ГБ

В этой теме нет новых непрочитанных сообщений. Красная скрипка / Le Violon rouge [драма, мелодрама, детектив, музыка, 1998] BDRip 720p, Mvo+Sub

salma3

10 | 3

6.97 ГБ

В этой теме нет новых непрочитанных сообщений. Торжественный концерт ко Дню Победы. Красная площадь (Россия) [Концерт, 2015] HDTV 1080i

Dracon

648 | 139

8.98 ГБ

В этой теме нет новых непрочитанных сообщений. Театр крови / Theater of Blood [ужасы, комедия, 1973] HDTV 1080i, Mvo

salma3

27 | 27

7.77 ГБ

В этой теме нет новых непрочитанных сообщений. Парад Победы. Москва. Красная площадь (Россия) [Военный парад, 2015] HDTV 1080i

Dracon

2130 | 171

4.76 ГБ

В этой теме нет новых непрочитанных сообщений. Парад Победы. Москва. Красная площадь (Россия) [Военный парад, 2015] HDTV 1080i

Dracon

2030 | 449

7.56 ГБ


Начать новую тему Ответить на тему  [ 1 сообщение ] 




Для Мосгорсуда, Роскомнадзора и рекламодателей:: mosgorsud-torrent[собачка]yandex.ru