Торрент файл
скачать торрент магнет ссылка Добавлен: 22 фев 2017, 22:03
Размер: 1.46 ГБ
Сидеров: 9
Личеров: 8
Статус: (salma3)
Автор

СообщениеДобавлено: 22 фев 2017, 22:03 

Не в сети
Супермодератор
Аватара пользователя
Дата регистрации:
15 фев 2012, 16:44
Возраст: 28
Спасибо: 6565 / 2130
Сообщения: 43671
Режиссер: Григорий Рошаль
Жанр: драма
Продолжительность: 01:38:15
Год выпуска: 1957

В ролях: Руфина Нифонтова, Нина Веселовская, Вадим Медведев, Николай Гриценко, Виктор Шарлахов, Владимир Муравьёв, Владлен Давыдов, Павел Винников, Сергей Яковлев, Виктор Яковлев (II), Пётр Модников, Анатолий Дудоров...

Описание:Петербург 1914 года, город мрачных рабочих окраин и яркой артистической жизни. Героини фильма – сёстры Катя и Даша Булавины. Старшая Катя (Руфина Нифонтова) – жена либерального адвоката Смоковникова – уже долгое время живёт в тоске от пустоты собственной жизни. От мыслей о самоубийстве её спасает офицер русской армии Вадим Рощин (Николай Гриценко). Младшая Даша посещает кружок поэтов – футуристов. На пароходе по пути в Самару она встречает давнего знакомого Ивана Телегина (Вадим Медведев)...



Формат: DVDRip
Видео: 688x512 (4:3), 25 fps, XviD build 73 ~ 1924 kbps avg, 0.218 bit/pixel
Аудио: 48 kHz, AC3 Dolby Digital, 2/0 (L,R) ch, ~192 kbps

Общее
Полное имя : Seostry.1957.DVDRip.avi
Формат : AVI
Формат/Информация : Audio Video Interleave
Размер файла : 1,46 Гбайт
Продолжительность : 1 ч. 38 м.
Общий поток : 2126 Кбит/сек
Программа кодирования : VirtualDubMod 1.5.10.3 | www.virtualdub-fr.org || (build 2550/release)
Библиотека кодирования : VirtualDubMod build 2550/release

Видео
Идентификатор : 0
Формат : MPEG-4 Visual
Профиль формата : Advanced Simple@L5
Параметр BVOP формата : 1
Параметр QPel формата : Нет
Параметр GMC формата : Без точки перехода
Параметр матрицы формата : Выборочная
Идентификатор кодека : XVID
Идентификатор кодека/Подсказка : XviD
Продолжительность : 1 ч. 38 м.
Битрейт : 1924 Кбит/сек
Ширина : 688 пикселей
Высота : 512 пикселей
Соотношение сторон : 4:3
Частота кадров : 25,000 кадров/сек
Цветовое пространство : YUV
Субдискретизация насыщенности : 4:2:0
Битовая глубина : 8 бит
Тип развёртки : Прогрессивная
Метод сжатия : С потерями
Бит/(Пиксели*Кадры) : 0.218
Размер потока : 1,32 Гбайт (91%)
Библиотека кодирования : XviD 73

Аудио
Идентификатор : 1
Формат : AC-3
Формат/Информация : Audio Coding 3
Расширение режима : CM (complete main)
Параметр Endianness формата : Big
Идентификатор кодека : 2000
Продолжительность : 1 ч. 38 м.
Вид битрейта : Постоянный
Битрейт : 192 Кбит/сек
Каналы : 2 канала
Расположение каналов : Front: L R
Частота : 48,0 КГц
Частота кадров : 31,250 кадров/сек (1536 spf)
Битовая глубина : 16 бит
Метод сжатия : С потерями
Размер потока : 135 Мбайт (9%)
Выравнивание : Разделение по промежуткам
Продолжительность промежутка : 40 мс. (1,00 видеокадр)
Время предзагрузки промежутка : 500 мс




_________________
Проголосуй за трекер Открытый торрент трекер - RUS-MEDIA.ORG

Проголосуй Открытый торрент трекер - RUS-MEDIA.ORG



реклама партнёра


Вернуться к началу
 Профиль Отправить личное сообщение  
 
   Похожие торренты   Автор   Торрент   Размер 
В этой теме нет новых непрочитанных сообщений. Хождение по мукам: Сёстры [драма, 1957] DVDRip-AVC

salma3

16 | 7

1.46 ГБ

В этой теме нет новых непрочитанных сообщений. Хождение по мукам: Восемнадцатый год [драма, история, 1958] DVDRip-AVC

salma3

25 | 11

1.46 ГБ

В этой теме нет новых непрочитанных сообщений. Хождение по мукам: Восемнадцатый год [драма, история, 1958] DVDRip

salma3

10 | 5

1.46 ГБ

В этой теме нет новых непрочитанных сообщений. Хождение по мукам: Хмурое утро [драма, история, экранизация, 1959] DVDRip

salma3

18 | 7

1.46 ГБ

В этой теме нет новых непрочитанных сообщений. Хождение по мукам: Хмурое утро [драма, история, экранизация, 1959] DVDRip-AVC

salma3

38 | 10

1.46 ГБ

В этой теме нет новых непрочитанных сообщений. Дело было в Пенькове [драма, мелодрама, 1957] DVDRip

salma3

103 | 11

1.45 ГБ

В этой теме нет новых непрочитанных сообщений. Балтийская слава [драма, история, военный, приключения, 1957] DVDRip

salma3

20 | 5

1.09 ГБ


Начать новую тему Ответить на тему  [ 1 сообщение ] 




Для Мосгорсуда, Роскомнадзора и рекламодателей:: mosgorsud-torrent[собачка]yandex.ru