Торрент файл
скачать торрент магнет ссылка Добавлен: 17 фев 2017, 13:59
Размер: 1.45 ГБ
Сидеров: 23
Личеров: 13
Статус: (salma3)
Автор

СообщениеДобавлено: 17 фев 2017, 13:59 

Не в сети
Супермодератор
Аватара пользователя
Дата регистрации:
15 фев 2012, 16:44
Возраст: 28
Спасибо: 6642 / 2146
Сообщения: 45664
Режиссер: Георгий Данелия
Жанр: комедия
Продолжительность: 01:13:24
Год выпуска: 1963

В ролях: Алексей Локтев, Галина Польских, Евгений Стеблов, Никита Михалков, Ирина Мирошниченко, Любовь Соколова, Аркадий Смирнов, Екатерина Мельникова, Владимир Басов, Ролан Быков, Валентина Ананьина, Евгения Мельникова, Евгения Мельникова, Вероника Васильева,

Описание:
Проездом, по дороге на родину погибшего товарища, молодой монтажник из далекой тайги на один день заехал в Москву, чтобы встретиться с редактором журнала "Юность", в котором он напечатал свой первый рассказ. Этот день Володя провел с новыми друзьями - москвичами Колей и Сашей, их большими и малыми заботами; встретил девушку Лену и пригласил ее на свою стройку...



Формат: DVDRip-AVC, MKV, H.264, AC3
Видео: 720@1024x440 (2.35:1), 25 fps, AVC (Н.264) ~2385 kbps avg, 0.301 bit/pixel
Аудио: 48 kHz, АС3, 6 ch, (Front: L C R, Side: L R, LFE) ~448.00 kbps avg

General
Complete name : Я шагаю по Москве.1963.mkv
Format : Matroska
Format version : Version 2
File size : 1.45 GiB
Duration : 1h 13mn
Overall bit rate : 2 835 Kbps
Movie name : «Я шагаю по Москве»
Encoded date : UTC 2013-09-01 17:21:45
Writing application : mkvmerge v5.8.0 ('No Sleep / Pillow') built on Sep 2 2012 15:37:04
Writing library : libebml v1.2.3 + libmatroska v1.3.0
Comment : DVDRip-AVC
Original date released : September 1st 2013
Encoded by : imgeorgest®

Video
ID : 1
Format : AVC
Format/Info : Advanced Video Codec
Format profile :
Format settings, CABAC : Yes
Format settings, ReFrames : 16 frames
Codec ID : V_MPEG4/ISO/AVC
Duration : 1h 13mn
Bit rate : 2 385 Kbps
Width : 720 pixels
Height : 440 pixels
Display aspect ratio : 2.35:1
Frame rate : 25.000 fps
Color space : YUV
Chroma subsampling : 4:2:0
Bit depth : 8 bits
Scan type : Progressive
Bits/(Pixel*Frame) : 0.301
Stream size : 1.20 GiB (82%)
Title : Я шагаю по Москве.1963
Writing library : x264 core 130 r2273 b3065e6
Encoding settings : cabac=1 / ref=16 / deblock=1:-1:-1 / analyse=0x3:0x133 / me=umh / subme=11 / psy=1 / psy_rd=0.75:0.05 / mixed_ref=1 / me_range=32 / chroma_me=1 / trellis=2 / 8x8dct=1 / cqm=0 / deadzone=21,11 / fast_pskip=0 / chroma_qp_offset=-3 / threads=12 / lookahead_threads=3 / sliced_threads=0 / nr=0 / decimate=0 / interlaced=0 / bluray_compat=0 / constrained_intra=0 / bframes=13 / b_pyramid=2 / b_adapt=2 / b_bias=0 / direct=3 / weightb=1 / open_gop=0 / weightp=2 / keyint=250 / keyint_min=25 / scenecut=40 / intra_refresh=0 / rc_lookahead=60 / rc=2pass / mbtree=1 / bitrate=2385 / ratetol=1.0 / qcomp=0.70 / qpmin=0 / qpmax=69 / qpstep=4 / cplxblur=20.0 / qblur=0.5 / vbv_maxrate=50000 / vbv_bufsize=50000 / nal_hrd=none / ip_ratio=1.40 / aq=2:0.90
Language : Russian
Default : Yes
Forced : No
Color primaries : BT.470-6 System B, BT.470-6 System G, BT.601-6 625, BT.1358 625, BT.1700 625 PAL, BT.1700 625 SECAM
Transfer characteristics : BT.470-6 System B, BT.470-6 System G
Matrix coefficients : BT.470-6 System B, BT.470-6 System G, BT.601-6 625, BT.1358 625, BT.1700 625 PAL, BT.1700 625 SECAM, IEC 61966-2-4 601

Audio
ID : 2
Format : AC-3
Format/Info : Audio Coding 3
Mode extension : CM (complete main)
Codec ID : A_AC3
Duration : 1h 13mn
Bit rate mode : Constant
Bit rate : 448 Kbps
Channel(s) : 6 channels
Channel positions : Front: L C R, Side: L R, LFE
Sampling rate : 48.0 KHz
Bit depth : 16 bits
Compression mode : Lossy
Stream size : 235 MiB (16%)
Title : Оригинал AC-3; 16 bit 48 Khz; 6ch 448 Kbps; CBR
Language : Russian
Default : Yes
Forced : No




_________________
Проголосуй за трекер Открытый торрент трекер - RUS-MEDIA.ORG

Проголосуй Открытый торрент трекер - RUS-MEDIA.ORG



реклама партнёра


Вернуться к началу
 Профиль Отправить личное сообщение  
 
   Похожие торренты   Автор   Торрент   Размер 
В этой теме нет новых непрочитанных сообщений. Четверо из Техаса / 4 for Texas [Комедия, вестерн, 1963] DVDRip, Mvo

salma3

23 | 2

1.45 ГБ

В этой теме нет новых непрочитанных сообщений. Риф Донована / Donovan's Reef [Мелодрама, Комедия, Приключения, 1963] DVDRip-AVC, Mvo

salma3

60 | 7

1.86 ГБ

В этой теме нет новых непрочитанных сообщений. Зорро и три мушкетера / Zorro e i tre moschettieri [боевик, драма, мелодрама, комедия, приключения, 1963] DVDRip, Avo+Sub

salma3

18 | 2

1.47 ГБ

В этой теме нет новых непрочитанных сообщений. Ворон / The Raven [Ужасы, фэнтези, комедия, 1963] HDTVRip, Dvo [НТВ+]

salma3

87 | 28

1.44 ГБ

В этой теме нет новых непрочитанных сообщений. Приди и протруби в свой рог / Come Blow Your Horn [мюзикл, комедия, 1963] HDRip, Mvo

salma3

37 | 11

1.45 ГБ

В этой теме нет новых непрочитанных сообщений. Трое суток после бессмертия [военный, история, 1963] DVDRip-AVC

salma3

16 | 6

1.09 ГБ

В этой теме нет новых непрочитанных сообщений. Мегрэ и гангстеры / Maigret voit rouge [детектив, 1963] DVDRip, Mvo

salma3

16 | 2

1.46 ГБ


Начать новую тему Ответить на тему  [ 1 сообщение ] 




Для Мосгорсуда, Роскомнадзора и рекламодателей:: mosgorsud-torrent[собачка]yandex.ru