Торрент файл
скачать торрент магнет ссылка Добавлен: 08 фев 2017, 22:17
Размер: 2.88 ГБ
Сидеров: 19
Личеров: 8
Автор

СообщениеДобавлено: 08 фев 2017, 22:17 

Не в сети
Супермодератор
Аватара пользователя
Дата регистрации:
15 фев 2012, 16:44
Возраст: 28
Спасибо: 6834 / 2147
Сообщения: 49435
Режиссер: Михаил Козаков
Жанр: мюзикл, драма, мелодрама, комедия
Продолжительность: 01:05:57, 01:13:46
Год выпуска: 1982

В ролях: Олег Меньшиков, Леонид Броневой, Инна Ульянова, Софья Пилявская, Анатолий Равикович, Виктор Борцов, Елена Коренева, Татьяна Догилева, Елизавета Никищихина, Игорь Дмитриев

Описание: Если вы развелись, и ваша бывшая жена снова вышла замуж — это еще не значит, что вы свободны. Если вы пригласили девушку на свидание, и она пришла, это еще не значит, что она будет вашей. Но если при этом ваш сосед по коммуналке — студент Костик, то можете быть уверены — все будет хорошо.



Формат: BDRip-AVC, MKV, H.264, AC3
Видео: 832x608 (4:3), 23.976 fps, AVC MPEG-4 (H.264), ~2500 kbps, 0.206 bit/pixel
Аудио: 48 kHz, AC3 Dolby Digital, 3/2 (L,C,R,l,r) + LFE ch, ~448 kbps

General
Unique ID : 214814687000688635129119977080466330511 (0xA19BCDC712F8895892C00049DEA6538F)
Complete name : Покровские ворота.1982.BDRip.1 серия.mkv
Format : Matroska
Format version : Version 2
File size : 1.36 GiB
Duration : 1h 5mn
Overall bit rate : 2 949 Kbps
Movie name : «Покровские ворота»
Encoded date : UTC 2013-04-28 14:20:25
Writing application : mkvmerge v5.8.0 ('No Sleep / Pillow') built on Sep 2 2012 15:37:04
Writing library : libebml v1.2.3 + libmatroska v1.3.0
Comment : BDRip-AVC
Original date released : April 28th 2013
Encoded by : imgeorgest®

Video
ID : 1
Format : AVC
Format/Info : Advanced Video Codec
Format profile :
Format settings, CABAC : Yes
Format settings, ReFrames : 13 frames
Codec ID : V_MPEG4/ISO/AVC
Duration : 1h 5mn
Bit rate : 2 500 Kbps
Width : 832 pixels
Height : 608 pixels
Display aspect ratio : 4:3
Frame rate : 23.976 fps
Color space : YUV
Chroma subsampling : 4:2:0
Bit depth : 8 bits
Scan type : Progressive
Bits/(Pixel*Frame) : 0.206
Stream size : 1.13 GiB (83%)
Title : Покровские ворота.1982.1 серия
Writing library : x264 core 132 r2309 3b1f1f7
Encoding settings : cabac=1 / ref=13 / deblock=1:-1:-1 / analyse=0x3:0x113 / me=umh / subme=11 / psy=1 / psy_rd=1.10:0.10 / mixed_ref=1 / me_range=48 / chroma_me=1 / trellis=2 / 8x8dct=1 / cqm=0 / deadzone=21,11 / fast_pskip=1 / chroma_qp_offset=-3 / threads=12 / lookahead_threads=2 / sliced_threads=0 / nr=0 / decimate=1 / interlaced=0 / bluray_compat=0 / constrained_intra=0 / bframes=7 / b_pyramid=2 / b_adapt=2 / b_bias=0 / direct=3 / weightb=1 / open_gop=0 / weightp=2 / keyint=250 / keyint_min=23 / scenecut=40 / intra_refresh=0 / rc_lookahead=40 / rc=2pass / mbtree=0 / bitrate=2500 / ratetol=1.0 / qcomp=0.70 / qpmin=0 / qpmax=69 / qpstep=4 / cplxblur=20.0 / qblur=0.5 / vbv_maxrate=50000 / vbv_bufsize=62500 / nal_hrd=none / ip_ratio=1.30 / pb_ratio=1.20 / aq=2:0.60
Language : Russian
Default : Yes
Forced : No
Color primaries : BT.709-5, BT.1361, IEC 61966-2-4, SMPTE RP177
Transfer characteristics : BT.709-5, BT.1361
Matrix coefficients : BT.709-5, BT.1361, IEC 61966-2-4 709, SMPTE RP177

Audio
ID : 2
Format : AC-3
Format/Info : Audio Coding 3
Mode extension : CM (complete main)
Codec ID : A_AC3
Duration : 1h 5mn
Bit rate mode : Constant
Bit rate : 448 Kbps
Channel(s) : 6 channels
Channel positions : Front: L C R, Side: L R, LFE
Sampling rate : 48.0 KHz
Bit depth : 16 bits
Compression mode : Lossy
Stream size : 211 MiB (15%)
Title : Оригинал: AC-3; 16 bit 48 Khz; 6ch 448 Kbps; CBR.
Language : Russian
Default : Yes
Forced : No





_________________
Проголосуй за трекер Открытый торрент трекер - RUS-MEDIA.ORG

Проголосуй Открытый торрент трекер - RUS-MEDIA.ORG



реклама партнёра


Вернуться к началу
 Профиль Отправить личное сообщение  
 
   Похожие торренты   Автор   Торрент   Размер 
В этой теме нет новых непрочитанных сообщений. Покровские ворота (2 серии из 2) [мюзикл, драма, мелодрама, комедия, 1982] BDRip

salma3

16 | 5

2.18 ГБ

В этой теме нет новых непрочитанных сообщений. Виктор/Виктория / Victor/Victoria [Мюзикл, мелодрама, комедия, 1982] BDRip 720p, Mvo

salma3

18 | 10

7.28 ГБ

В этой теме нет новых непрочитанных сообщений. Энни / Annie [драма, комедия, мюзикл, семейный, 1982] BDRip 1080, Mvo

salma3

4 | 0

9.09 ГБ

В этой теме нет новых непрочитанных сообщений. Большой веселый мюзикл / The Big Gay Musical [Комедия, мюзикл, драма, мелодрама, музыка, 2009] BDRip 720p, Avo+Sub

salma3

20 | 5

3.82 ГБ

В этой теме нет новых непрочитанных сообщений. Тутси / Tootsie [драма, мелодрама, комедия, 1982] BDRip 720p, Dub+4Mvo+4Avo+Dvo+Sub

salma3

45 | 5

12.68 ГБ

В этой теме нет новых непрочитанных сообщений. Стиляги [мюзикл, драма, мелодрама, комедия, 2008] BDRip-AVC [Лицензия]

salma3

110 | 60

3.37 ГБ

В этой теме нет новых непрочитанных сообщений. Лa-Лa Лeнд / Lа Lа Lаnd [мюзикл, драма, мелодрама, комедия, 2016] BDRip-AVC, Dub [iTunes]

salma3

208 | 53

2.12 ГБ


Начать новую тему Ответить на тему  [ 1 сообщение ] 




Для Мосгорсуда, Роскомнадзора и рекламодателей:: mosgorsud-torrent[собачка]yandex.ru