Торрент файл
скачать торрент магнет ссылка Добавлен: 07 фев 2017, 15:46
Размер: 2.91 ГБ
Сидеров: 32
Личеров: 8
Статус: (salma3)
Автор

СообщениеДобавлено: 07 фев 2017, 15:46 

Не в сети
Супермодератор
Аватара пользователя
Дата регистрации:
15 фев 2012, 16:44
Возраст: 29
Спасибо: 7379 / 2147
Сообщения: 76077
Режиссер: Михаил Швейцер
Жанр: комедия
Продолжительность: 01:11:08, 01:32:52
Год выпуска: 1968

В ролях: Сергей Юрский, Леонид Куравлёв, Зиновий Гердт, Евгений Евстигнеев, Светлана Старикова, Николай Боярский, Михаил Кокшенов, Павел Павленко, Павел Винник, Константин Воинов

Описание:«Великий комбинатор» Остап Бендер с детства мечтает о Рио-де-Жанейро. Ему известны множество способов «сравнительно честного отъема денег у граждан». Но — где же в Советской России найти гражданина, обладающего хотя бы полумиллионом рублей? И вот подпольный миллионер, выдающий себя за скромного служащего на нищенском жалованьи, найден. И должен сам принести деньги Остапу «на блюдечке с голубой каемочкой». Как же великий комбинатор добьется этого? Сбудется ли мечта его детства? Об этом расскажет зрителю этот фильм с великолепным актерским ансамблем — Сергей Юрский, Леонид Куравлев, Зиновий Гердт, Евгений Евстигнеев…



Формат: DVDRip-AVC, MKV, H.264, AC3
Видео: 716@1046x456 (2.25:1), 25 fps, AVC MPEG-4 (H.264), ~2343 kbps, 0.287 bit/pixel
Аудио: 48 kHz, AC3, 2.0 (L, R) ch, ~ 192 kbps

Доп. информация: Экранизация одноименного романа Ильи Ильфа и Евгения Петрова.
General
Unique ID : 240157046156481761802167021670951997103 (0xB4AC908D3824530791ED352AB8CACEAF)
Complete name :Золотой телёнок.1968.mkv
Format : Matroska
Format version : Version 2
File size : 2.91 GiB
Duration : 2h 44mn
Overall bit rate : 2 537 Kbps
Movie name : «Золотой телёнок»
Encoded date : UTC 2014-06-23 17:22:49
Writing application : mkvmerge v5.8.0 ('No Sleep / Pillow') built on Sep 2 2012 15:37:04
Writing library : libebml v1.2.3 + libmatroska v1.3.0
Comment : DVDRip-AVC
Original date released : June 23rd 2014
Encoded by : imgeorgest®

Video
ID : 1
Format : AVC
Format/Info : Advanced Video Codec
Format profile :
Format settings, CABAC : Yes
Format settings, ReFrames : 16 frames
Codec ID : V_MPEG4/ISO/AVC
Duration : 2h 44mn
Bit rate : 2 343 Kbps
Width : 716 pixels
Height : 456 pixels
Display aspect ratio : 2.25:1
Original display aspect ratio : 2.25:1
Frame rate mode : Constant
Frame rate : 25.000 fps
Color space : YUV
Chroma subsampling : 4:2:0
Bit depth : 8 bits
Scan type : Progressive
Bits/(Pixel*Frame) : 0.287
Stream size : 2.63 GiB (90%)
Title : Золотой телёнок.1968
Writing library : x264 core 130 r2273 b3065e6
Encoding settings : cabac=1 / ref=16 / deblock=1:-2:-2 / analyse=0x3:0x133 / me=umh / subme=11 / psy=1 / psy_rd=0.97:0.00 / mixed_ref=1 / me_range=48 / chroma_me=1 / trellis=2 / 8x8dct=1 / cqm=0 / deadzone=21,11 / fast_pskip=0 / chroma_qp_offset=-2 / threads=12 / lookahead_threads=3 / sliced_threads=0 / nr=0 / decimate=0 / interlaced=0 / bluray_compat=0 / constrained_intra=0 / bframes=16 / b_pyramid=2 / b_adapt=2 / b_bias=0 / direct=3 / weightb=1 / open_gop=0 / weightp=2 / keyint=250 / keyint_min=25 / scenecut=40 / intra_refresh=0 / rc_lookahead=60 / rc=2pass / mbtree=1 / bitrate=2343 / ratetol=1.0 / qcomp=0.70 / qpmin=0 / qpmax=32 / qpstep=4 / cplxblur=20.0 / qblur=0.5 / vbv_maxrate=50000 / vbv_bufsize=62500 / nal_hrd=none / ip_ratio=1.35 / aq=1:0.80
Language : Russian
Default : Yes
Forced : No
Color primaries : BT.601 PAL
Transfer characteristics : BT.470 System B, BT.470 System G
Matrix coefficients : BT.601

Audio
ID : 2
Format : AC-3
Format/Info : Audio Coding 3
Mode extension : CM (complete main)
Format settings, Endianness : Big
Codec ID : A_AC3
Duration : 2h 44mn
Bit rate mode : Constant
Bit rate : 192 Kbps
Channel(s) : 2 channels
Channel positions : Front: L R
Sampling rate : 48.0 KHz
Bit depth : 16 bits
Compression mode : Lossy
Stream size : 225 MiB (8%)
Title : Оригинал: AC-3; 16 bit 48 Khz; 2.0 ch 192 Kbps; CBR
Language : Russian
Default : Yes
Forced : No

Text
ID : 3
Format : UTF-8
Codec ID : S_TEXT/UTF8
Codec ID/Info : UTF-8 Plain Text
Title : Субтитры русские
Language : Russian
Default : No
Forced : No





_________________
Проголосуй за трекер Открытый торрент трекер - RUS-MEDIA.ORG

Проголосуй Открытый торрент трекер - RUS-MEDIA.ORG


Вернуться к началу
 Профиль Отправить личное сообщение  
 
   Похожие торренты   Автор   Торрент   Размер 
В этой теме нет новых непрочитанных сообщений. Жандарм женится / Le gendarme se marie [комедия, 1968] DVDRip-AVC, Mvo

salma3

7 | 5

1.53 ГБ

В этой теме нет новых непрочитанных сообщений. Самый крупный куш / The Biggest Bundle of Them All [комедия, криминал, 1968] DVDRip, Mvo

salma3

38 | 5

1.45 ГБ

В этой теме нет новых непрочитанных сообщений. Футбол. Чемпионат Европы 1968-2004 (Все голы) (1968-2004) SATRip-AVC | 50 fps

salma3

32 | 35

14.7 ГБ

В этой теме нет новых непрочитанных сообщений. Золотой сфинкс / La sfinge d'oro [приключения, 1967] DVDRip, Dvo [ТВЦ]

salma3

357 | 72

1.46 ГБ

В этой теме нет новых непрочитанных сообщений. В поисках золотой рыбки / Kattappava Kanom [Комедия, 2017] HDRip, Mvo [SDI Media]

salma3

5 | 2

1.45 ГБ

В этой теме нет новых непрочитанных сообщений. В поисках золотой рыбки / Kattappava Kanom [комедия, 2017] HDRip, Mvo [SDI Media]

salma3

53 | 136

2.07 ГБ

В этой теме нет новых непрочитанных сообщений. Золотой ребенок / The Golden Child [фэнтези, боевик, комедия, 1986] WEBRip 1080p, Mvo

salma3

80 | 43

11.16 ГБ


Начать новую тему Ответить на тему  [ 1 сообщение ] 




Для Мосгорсуда, Роскомнадзора и рекламодателей:: mosgorsud-torrent[собачка]yandex.ru
cron