Торрент файл
скачать торрент магнет ссылка Добавлен: 03 фев 2017, 16:43
Размер: 1.45 ГБ
Сидеров: 103
Личеров: 11
Статус: (salma3)
Автор

СообщениеДобавлено: 03 фев 2017, 16:43 

Не в сети
Супермодератор
Аватара пользователя
Дата регистрации:
15 фев 2012, 16:44
Возраст: 28
Спасибо: 6593 / 2145
Сообщения: 44208
Формат: DVDRip, AVI, XviD, AC3
Режиссер: Станислав Ростоцкий
Жанр: драма, мелодрама
Продолжительность: 01:34:13
Год выпуска: 1957

В ролях: Майя Менглет, Вячеслав Тихонов, Светлана Дружинина, Владимир Ратомский, Валентина Телегина, Анатолий Кубацкий, Юрий Медведев, Александра Харитонова, Юрий Мартынов

Описание:
Экранизация повести С.Антонова. В родное село возвращается из мест «не столь отдаленных» лихой тракторист Матвей Морозов. И вспоминается ему история его женитьбы, его роковой любви, несостоявшейся измены и совершенного сгоряча «преступления», в котором он нисколько не раскаивается. Первый парень на деревне, Матвей Морозов был настоящей головной болью для председателя колхоза. Правда, работал за десятерых, но горазд был на всякие выдумки. Да к тому же полюбила его председательская дочка Лариса. Очередной выходкой Матвея были «гонки» на тракторах с передовиком производства Зефировым, в результате чего был сломан трактор. Чуть было не отдали Матвея под суд, да вместо этого пришлось играть его свадьбу с Ларисой. А потом поползли по селу слухи о «дружбе» Матвея с новым зоотехником Тоней. Жутко взревновала Лариса и задумала извести соперницу. Да еще бабка Алевтина – местная сплетница и самогонщица – подлила масла в огонь, выложив новые сведения о Матвее и Тоне…



Видео: 688x528 (4:3), 25 fps, XviD build 65 ~ 1816 kbps avg, 0.200 bit/pixel
Аудио: 48 kHz, AC3 Dolby Digital, 3/2 (L,C,R,l,r) + LFE ch, ~384.00 kbps

Общее
Полное имя : Delo.bylo.v.Pen'kove.1957.DVDRip.avi
Формат : AVI
Формат/Информация : Audio Video Interleave
Размер файла : 1,45 Гбайт
Продолжительность : 1 ч. 34 м.
Общий поток : 2210 Кбит/сек
Программа кодирования : VirtualDubMod 1.5.10.3 | www.virtualdub-fr.org || (build 2550/release)
Библиотека кодирования : VirtualDubMod build 2550/release

Видео
Идентификатор : 0
Формат : MPEG-4 Visual
Профиль формата : Advanced Simple@L5
Параметр BVOP формата : 1
Параметр QPel формата : Нет
Параметр GMC формата : Без точки перехода
Параметр матрицы формата : Выборочная
Идентификатор кодека : XVID
Идентификатор кодека/Подсказка : XviD
Продолжительность : 1 ч. 34 м.
Битрейт : 1816 Кбит/сек
Ширина : 688 пикселей
Высота : 528 пикселей
Соотношение сторон : 4:3
Частота кадров : 25,000 кадров/сек
Цветовое пространство : YUV
Субдискретизация насыщенности : 4:2:0
Битовая глубина : 8 бит
Тип развёртки : Прогрессивная
Метод сжатия : С потерями
Бит/(Пиксели*Кадры) : 0.200
Размер потока : 1,20 Гбайт (82%)
Библиотека кодирования : XviD 65

Аудио
Идентификатор : 1
Формат : AC-3
Формат/Информация : Audio Coding 3
Расширение режима : CM (complete main)
Идентификатор кодека : 2000
Продолжительность : 1 ч. 34 м.
Вид битрейта : Постоянный
Битрейт : 384 Кбит/сек
Каналы : 6 каналов
Расположение каналов : Front: L C R, Side: L R, LFE
Частота : 48,0 КГц
Битовая глубина : 16 бит
Метод сжатия : С потерями
Размер потока : 259 Мбайт (17%)
Выравнивание : Разделение по промежуткам
Продолжительность промежутка : 40 мс. (1,00 видеокадр)
Время предзагрузки промежутка : 500 мс




_________________
Проголосуй за трекер Открытый торрент трекер - RUS-MEDIA.ORG

Проголосуй Открытый торрент трекер - RUS-MEDIA.ORG



реклама партнёра


Вернуться к началу
 Профиль Отправить личное сообщение  
 
   Похожие торренты   Автор   Торрент   Размер 
В этой теме нет новых непрочитанных сообщений. Мальчик на дельфине / Boy on a Dolphin [драма, мелодрама, приключения, 1957] BDRip 720p, Mvo

salma3

34 | 11

4.51 ГБ

В этой теме нет новых непрочитанных сообщений. Мальчик на дельфине / Boy on a Dolphin [драма, мелодрама, приключения, 1957] HDRip-AVCM, Mvo

salma3

37 | 6

745.05 МБ

В этой теме нет новых непрочитанных сообщений. Хождение по мукам: Сёстры [драма, 1957] DVDRip

salma3

9 | 8

1.46 ГБ

В этой теме нет новых непрочитанных сообщений. Хождение по мукам: Сёстры [драма, 1957] DVDRip-AVC

salma3

16 | 7

1.46 ГБ

В этой теме нет новых непрочитанных сообщений. Балтийская слава [драма, история, военный, приключения, 1957] DVDRip-AVC

salma3

36 | 12

1.09 ГБ

В этой теме нет новых непрочитанных сообщений. Балтийская слава [драма, история, военный, приключения, 1957] DVDRip

salma3

20 | 5

1.09 ГБ

В этой теме нет новых непрочитанных сообщений. Дело - труба / Brassed Off [драма, мелодрама, комедия, 1996] BDRip 1080p, Mvo+Sub

salma3

15 | 2

14.65 ГБ


Начать новую тему Ответить на тему  [ 1 сообщение ] 




Для Мосгорсуда, Роскомнадзора и рекламодателей:: mosgorsud-torrent[собачка]yandex.ru