Торрент файл
скачать торрент магнет ссылка Добавлен: 02 фев 2017, 23:16
Размер: 13.61 ГБ
Сидеров: 46
Личеров: 15
Статус: (salma3)
Автор

СообщениеДобавлено: 02 фев 2017, 23:16 

Не в сети
Супермодератор
Аватара пользователя
Дата регистрации:
15 фев 2012, 16:44
Возраст: 28
Спасибо: 7060 / 2147
Сообщения: 59015
Год выпуска: 1975
Жанр: драма, военный, история
Режиссер: Сергей Бондарчук

В ролях: Василий Шукшин, Вячеслав Тихонов, Сергей Бондарчук, Георгий Бурков, Юрий Никулин, Иван Лапиков, Николай Губенко, Андрей Ростоцкий, Николай Волков, Николай Шутько

Описание:
Июль 1942 года. На подступах к Сталинграду обескровленные, измотанные советские войска ведут тяжелые оборонительные бои, неся огромные потери… Фильм рассказывает о подвиге рядовых солдат, любви к родной земле, об истинной цене победы…



Страна: Россия
Продолжительность: 02:37:25
Перевод: Не требуется

Формат: BDRip 1080p
Видео: 1488x1080p (1.37:1), 23.976 fps, AVC MPEG-4 (H.264), ~10.9 Mbps, 0.282 bit/pixel
Аудио: Русский : 48 kHz, DTS, 6 ch, 1509 kbps

General
Unique ID : 213725754164066937606719598540617607734 (0xA0CA153E61EEB1DABDE3F16C1ABEEA36)
Complete name : Oni_srazhalis_za_rodinu_1975.BDRip.1080p-BLUEBIRD.mkv
Format : Matroska
Format version : Version 4 / Version 2
File size : 13.6 GiB
Duration : 2h 38mn
Overall bit rate : 12.3 Mbps
Movie name : BRH@BlueBird
Encoded date : UTC 2015-06-23 05:54:33
Writing application : mkvmerge v8.0.0 ('Til The Day That I Die') 64bit
Writing library : libebml v1.3.1 + libmatroska v1.4.2

Video
ID : 1
Format : AVC
Format/Info : Advanced Video Codec
Format profile :
Format settings, CABAC : Yes
Format settings, ReFrames : 5 frames
Codec ID : V_MPEG4/ISO/AVC
Duration : 2h 38mn
Bit rate : 10.9 Mbps
Width : 1 488 pixels
Height : 1 080 pixels
Display aspect ratio : 1.378
Frame rate mode : Constant
Frame rate : 23.976 fps
Color space : YUV
Chroma subsampling : 4:2:0
Bit depth : 8 bits
Scan type : Progressive
Bits/(Pixel*Frame) : 0.282
Stream size : 11.7 GiB (86%)
Writing library : x264 core 146 r2538 121396c
Encoding settings : cabac=1 / ref=5 / deblock=1:-3:-2 / analyse=0x3:0x113 / me=umh / subme=11 / psy=1 / psy_rd=1.00:0.00 / mixed_ref=1 / me_range=32 / chroma_me=1 / trellis=2 / 8x8dct=1 / cqm=0 / deadzone=21,11 / fast_pskip=1 / chroma_qp_offset=-2 / threads=12 / lookahead_threads=1 / sliced_threads=0 / nr=0 / decimate=1 / interlaced=0 / bluray_compat=0 / constrained_intra=0 / bframes=11 / b_pyramid=2 / b_adapt=1 / b_bias=0 / direct=2 / weightb=1 / open_gop=0 / weightp=2 / keyint=240 / keyint_min=23 / scenecut=40 / intra_refresh=0 / rc_lookahead=40 / rc=2pass / mbtree=1 / bitrate=10850 / ratetol=1.0 / qcomp=0.60 / qpmin=0 / qpmax=69 / qpstep=4 / cplxblur=20.0 / qblur=0.5 / vbv_maxrate=62500 / vbv_bufsize=78125 / nal_hrd=none / filler=0 / ip_ratio=1.40 / aq=1:1.00
Language : English
Default : Yes
Forced : No

Audio
ID : 2
Format : DTS
Format/Info : Digital Theater Systems
Mode : 16
Format settings, Endianness : Big
Codec ID : A_DTS
Duration : 2h 38mn
Bit rate mode : Constant
Bit rate : 1 509 Kbps
Channel(s) : 6 channels
Channel positions : Front: L C R, Side: L R, LFE
Sampling rate : 48.0 KHz
Bit depth : 24 bits
Compression mode : Lossy
Stream size : 1.68 GiB (12%)
Default : Yes
Forced : No

Menu
00:00:00.000 : en:00:00:00.000
00:07:34.454 : en:00:07:34.454
00:18:17.096 : en:00:18:17.096
00:24:18.457 : en:00:24:18.457
00:31:00.859 : en:00:31:00.859
00:41:29.487 : en:00:41:29.487
00:50:25.022 : en:00:50:25.022
00:58:38.515 : en:00:58:38.515
01:12:39.355 : en:01:12:39.355
01:21:33.514 : en:01:21:33.514
01:31:06.294 : en:01:31:06.294
01:41:02.682 : en:01:41:02.682
01:48:47.354 : en:01:48:47.354
01:54:57.724 : en:01:54:57.724
02:02:08.947 : en:02:02:08.947
02:10:55.681 : en:02:10:55.681
02:18:56.161 : en:02:18:56.161
02:28:51.798 : en:02:28:51.798





_________________
Проголосуй за трекер Открытый торрент трекер - RUS-MEDIA.ORG

Проголосуй Открытый торрент трекер - RUS-MEDIA.ORG


Вернуться к началу
 Профиль Отправить личное сообщение  
 
   Похожие торренты   Автор   Торрент   Размер 
В этой теме нет новых непрочитанных сообщений. Они сражались за Родину [драма, военный, история, 1975] BDRip 720p

salma3

50 | 7

7.76 ГБ

В этой теме нет новых непрочитанных сообщений. Они сражались за Родину (Сергей Бондарчук) [Военный, драма, 1975] HDTVRip [Полная версия]

Dracon

77 | 1

2.73 ГБ

В этой теме нет новых непрочитанных сообщений. Барри Линдон / Barry Lyndon [драма, приключения, военный, история, 1975] BDRemux 1080p, Mvo

salma3

11 | 4

41.09 ГБ

В этой теме нет новых непрочитанных сообщений. Полицейская история / Flic Story [триллер, драма, криминал, 1975] BDRip 1080p, Mvo+Dvo

salma3

12 | 3

12.11 ГБ

В этой теме нет новых непрочитанных сообщений. Моя земля / Under sandet [драма, военный, история, 2015] BDRip 1080p, Avo+Sub

salma3

149 | 75

7.95 ГБ

В этой теме нет новых непрочитанных сообщений. Кромвель / Cromwell [драма, военный, биография, история, 1970] BDRip 1080p, Dvo

salma3

38 | 12

8.61 ГБ

В этой теме нет новых непрочитанных сообщений. Кундун / Kundun [Драма, военный, биография, история, 1997] BDRip 1080p, Mvo+Avo+Sub

salma3

7 | 3

11.17 ГБ


Начать новую тему Ответить на тему  [ 1 сообщение ] 




Для Мосгорсуда, Роскомнадзора и рекламодателей:: mosgorsud-torrent[собачка]yandex.ru
cron