Торрент файл
скачать торрент магнет ссылка Добавлен: 16 янв 2017, 22:51
Размер: 1.46 ГБ
Сидеров: 21
Личеров: 7
Статус: (salma3)
Автор

СообщениеДобавлено: 16 янв 2017, 22:51 

Не в сети
Супермодератор
Аватара пользователя
Дата регистрации:
15 фев 2012, 16:44
Возраст: 28
Спасибо: 7163 / 2147
Сообщения: 61819
Посеяли девушки лён

Формат: DVDRip, AVI, XviD, AC3
Режиссер: Владимир Корш-Саблин
Жанр: драма, мелодрама
Продолжительность: 01:25:53
Год выпуска: 1956

В ролях: Зоя Степанова, Елена Тяпкина, Лев Фричинский, Борис Кордунов, Лариса Кронберг, Тамара Трушина, Глеб Глебов, Людмила Семёнова, Нина Алисова, Александр Ильинский, Павел Пекур, А. Лихачев, Георгий Гумилевский, Валентина Кравченко

Описание: Сюжет из колхозной жизни. Звеньевая белорусского колхоза Найдейка Красович, воодушевленная наградой на Всесоюзной сельскохозяйственной выставке за высокий урожай льна, дает слово вдвое увеличить урожай. Многие односельчане сомневаются в ее успехе, и лишь Григорий Павлович, новый директор МТС, оставивший в городе семью и приехавший в село по зову партии, оказывает Надейке всяческую поддержку и чрезмерное внимание, потому что любит и, кажется, любим. Параллельно этой истории развивается сюжет о любви трактористки Зоси к леснику Янке, который безответно страдает по Надейке.

Рейтинг и доп. информация:


Видео: 704x528 (1.33:1), 23.976 fps, XviD build 73 ~ 2232 kbps avg, 0.240 bit/pixel
Аудио: 48 kHz, AC3 Dolby Digital, 2/0 (L,R) ch, ~192 kbps

Доп. инфо: Источник: DVD5 R5
Общее
Полное имя : Poseyali.devushki.len.1956.DVDRip.avi
Формат : AVI
Формат/Информация : Audio Video Interleave
Размер файла : 1,46 Гбайт
Продолжительность : 1 ч. 25 м.
Общий поток : 2433 Кбит/сек
Программа кодирования : VirtualDubMod 1.5.10.3 | www.virtualdub-fr.org || (build 2550/release)
Библиотека кодирования : VirtualDubMod build 2550/release

Видео
Идентификатор : 0
Формат : MPEG-4 Visual
Профиль формата : Advanced Simple@L5
Параметр BVOP формата : 1
Параметр QPel формата : Нет
Параметр GMC формата : Без точки перехода
Параметр матрицы формата : Выборочная
Идентификатор кодека : XVID
Идентификатор кодека/Подсказка : XviD
Продолжительность : 1 ч. 25 м.
Битрейт : 2232 Кбит/сек
Ширина : 704 пикселя
Высота : 528 пикселей
Соотношение сторон : 4:3
Частота кадров : 25,000 кадров/сек
Цветовое пространство : YUV
Субдискретизация насыщенности : 4:2:0
Битовая глубина : 8 бит
Тип развёртки : Прогрессивная
Метод сжатия : С потерями
Бит/(Пиксели*Кадры) : 0.240
Размер потока : 1,34 Гбайт (92%)
Библиотека кодирования : XviD 73

Аудио
Идентификатор : 1
Формат : AC-3
Формат/Информация : Audio Coding 3
Расширение режима : CM (complete main)
Параметр Endianness формата : Big
Идентификатор кодека : 2000
Продолжительность : 1 ч. 25 м.
Вид битрейта : Постоянный
Битрейт : 192 Кбит/сек
Каналы : 2 канала
Расположение каналов : Front: L R
Частота : 48,0 КГц
Частота кадров : 31,250 кадров/сек (1536 spf)
Битовая глубина : 16 бит
Метод сжатия : С потерями
Размер потока : 118 Мбайт (8%)
Выравнивание : Разделение по промежуткам
Продолжительность промежутка : 40 мс. (1,00 видеокадр)
Время предзагрузки промежутка : 500 мс




_________________
Проголосуй за трекер Открытый торрент трекер - RUS-MEDIA.ORG

Проголосуй Открытый торрент трекер - RUS-MEDIA.ORG


Вернуться к началу
 Профиль Отправить личное сообщение  
 
   Похожие торренты   Автор   Торрент   Размер 
В этой теме нет новых непрочитанных сообщений. Слова, написанные на ветру / Written on the Wind [Драма, мелодрама, 1956] BDRip 1080p, Mvo+Sub

salma3

8 | 20

8.88 ГБ

В этой теме нет новых непрочитанных сообщений. Убийство на улице Данте [драма, 1956] DVDRip-AVC

salma3

0 | 0

1.09 ГБ

В этой теме нет новых непрочитанных сообщений. Рисовое поле / La risaia [драма, 1956] DVDRip, Avo

salma3

0 | 0

1.45 ГБ

В этой теме нет новых непрочитанных сообщений. Ну, и девушки / Некоторые девчонки / Some Girls [драма, мелодрама, комедия, 1988] DVDRemux, Mvo

salma3

51 | 29

3.97 ГБ

В этой теме нет новых непрочитанных сообщений. Красивые девушки / Beautiful Girls [комедия, драма, мелодрама, 1996] BDRip, Dvo

salma3

61 | 16

2.18 ГБ

В этой теме нет новых непрочитанных сообщений. Красивые девушки / Beautiful Girls [комедия, драма, мелодрама, 1996] BDRip 720p, Dvo+Sub

salma3

60 | 26

7.08 ГБ

В этой теме нет новых непрочитанных сообщений. Солдаты / В окопах Сталинграда [драма, военный, экранизация, 1956] DVDRip-AVC

salma3

66 | 21

1.46 ГБ


Начать новую тему Ответить на тему  [ 1 сообщение ] 




Для Мосгорсуда, Роскомнадзора и рекламодателей:: mosgorsud-torrent[собачка]yandex.ru
cron