Торрент файл
скачать торрент магнет ссылка Добавлен: 02 янв 2017, 13:51
Размер: 1.44 ГБ
Сидеров: 36
Личеров: 4
Статус: (salma3)
Автор

СообщениеДобавлено: 02 янв 2017, 13:51 

Не в сети
Супермодератор
Аватара пользователя
Дата регистрации:
15 фев 2012, 16:44
Возраст: 27
Спасибо: 5505 / 2103
Сообщения: 20970
Формат: DVDRip, AVI, XviD, AC3
Режиссер: Эдмонд Кеосаян
Жанр: боевик, приключения
Продолжительность: 01:17:44
Год выпуска: 1968

В ролях: Михаил Метёлкин, Василий Васильев, Виктор Косых, Валентина Курдюкова, Армен Джигарханян, Борис Сичкин, Аркадий Толбузин, Владимир Ивашов, Ефим Копелян, Константин Сорокин, Иван Переверзев, Николай Федорцов, Евгений Весник, Сергей Филиппов, Савелий Крамаров, Юрий Мартынов,

Описание:
Вторая часть бессмертного советского истерна о приключениях четырех подростков во время гражданской войны. Крым накануне освобождения от белогвардейцев. "Дьяволята" поступили на службу в Красную Армию. Возвращаясь из дозора, четверка "неуловимых" подбивает аэроплан. В планшете взятого в плен летчика они обнаруживают секретные донесения, где говорится о существовании плана оборонительных сооружений в Крыму. "Красные дьяволята" подросли, повзрослели, и ЧК поручает им важное и опасное задание: проникнуть в занятую белогвардейцами Одессу и из сейфа полковника Кудасова, начальника контрразведки, добыть карту укрепрайона, созданного белыми.



Видео: 704x304 (2.35:1), 25 fps, XviD 1.2.1, 2197 kbps avg, 0.411 bit/pixel
Аудио: 48 kHz, AC3 Dolby Digital, 3/2 (L,C,R,l,r) + LFE ch, 448.00 kbps avg

Полное имя : Novye priklucheniya neulovimyh.avi
Формат : AVI
Формат/Информация : Audio Video Interleave
Размер файла : 1,44 Гбайт
Продолжительность : 1 ч. 17 м.
Общий поток : 2654 Кбит/сек
Программа кодирования : VirtualDubMod 1.5.10.3 (build 2550/release)
Библиотека кодирования : VirtualDubMod build 2550/release

Видео
Идентификатор : 0
Формат : MPEG-4 Visual
Профиль формата : Advanced Simple@L5
Параметр BVOP формата : 1
Параметр QPel формата : Нет
Параметр GMC формата : Без точки перехода
Параметр матрицы формата : Выборочная
Режим смешивания : Сжатый битовый поток
Идентификатор кодека : XVID
Идентификатор кодека/Подсказка : XviD
Продолжительность : 1 ч. 17 м.
Битрейт : 2197 Кбит/сек
Ширина : 704 пикселя
Высота : 304 пикселя
Соотношение сторон : 2,35:1
Частота кадров : 25,000 кадров/сек
Цветовое пространство : YUV
Субдискретизация насыщенности : 4:2:0
Битовая глубина : 8 бит
Тип развёртки : Прогрессивная
Метод сжатия : С потерями
Бит/(Пиксели*Кадры) : 0.411
Размер потока : 1,19 Гбайт (83%)
Библиотека кодирования : XviD 1.2.1 (UTC 2008-12-04)

Аудио
Идентификатор : 1
Формат : AC-3
Формат/Информация : Audio Coding 3
Расширение режима : CM (complete main)
Идентификатор кодека : 2000
Продолжительность : 1 ч. 17 м.
Вид битрейта : Постоянный
Битрейт : 448 Кбит/сек
Каналы : 6 каналов
Расположение каналов : Front: L C R, Side: L R, LFE
Частота : 48,0 КГц
Битовая глубина : 16 бит
Метод сжатия : С потерями
Задержка видео : 2 с. 798 мс.
Размер потока : 249 Мбайт (17%)
Выравнивание : Разделение по промежуткам
Продолжительность промежутка : 40 мс. (1,00 видеокадр)
Время предзагрузки промежутка : 500 мс.




_________________
Проголосуй за трекер Открытый торрент трекер - RUS-MEDIA.ORG

Не забудьте оставить комментарий!



реклама партнёра


Вернуться к началу
 Профиль Отправить личное сообщение  
 
   Похожие торренты   Автор   Торрент   Размер 
В этой теме нет новых непрочитанных сообщений. Тайна 2: Новые приключения на Амазонке / Taina 2 - A Aventura Continua [приключения, семейный, 2004] DVDRip, Mvo

salma3

17 | 5

690.12 МБ

В этой теме нет новых непрочитанных сообщений. Приключения на берегах Онтарио / Die Lederstrumpferzählungen [приключения, вестерн, 1968] DVDRip, Dub

salma3

33 | 6

1.46 ГБ

В этой теме нет новых непрочитанных сообщений. Кавказская пленница или новые приключения Шурика [Комедийная мелодрама, приключения, 1967] BDRip [КПК]

salma3

62 | 6

360.77 МБ

В этой теме нет новых непрочитанных сообщений. Адские бойцы / Hellfighters [Боевик, драма, мелодрама, приключения, 1968] BDRip, Dub

salma3

45 | 12

2.04 ГБ

В этой теме нет новых непрочитанных сообщений. Новые приключения старой Кристин / The New Adventures of Old Christine / 1 сезон 1-13 серии из 13 [комедия, 2006] DVDRip, Mvo [ViruseProject]

salma3

14 | 4

2.34 ГБ

В этой теме нет новых непрочитанных сообщений. Новые приключения старой Кристин / The New Adventures of Old Christine / 3 сезон 1-10 серии из 10 [комедия, 2008] DVDRip, Mvo [ViruseProject]

salma3

9 | 2

1.81 ГБ

В этой теме нет новых непрочитанных сообщений. Новые приключения старой Кристин / The New Adventures of Old Christine / 4 сезон 1-22 серии из 22 [комедия, 2008-2009] DVDRip, Mvo [ViruseProject]

salma3

15 | 4

3.97 ГБ


Начать новую тему Ответить на тему  [ 1 сообщение ] 




Для Мосгорсуда, Роскомнадзора и рекламодателей:: mosgorsud-torrent[собачка]yandex.ru