Торрент файл
скачать торрент магнет ссылка Добавлен: 02 янв 2017, 13:48
Размер: 1.44 ГБ
Сидеров: 53
Личеров: 4
Статус: (salma3)
Автор

СообщениеДобавлено: 02 янв 2017, 13:48 

В сети
Супермодератор
Аватара пользователя
Дата регистрации:
15 фев 2012, 16:44
Возраст: 28
Спасибо: 6469 / 2129
Сообщения: 40974
Формат: DVDRip, AVI, XviD, AC3
Режиссер: Эдмонд Кеосаян
Жанр: боевик, приключения
Продолжительность: 01:13:50
Год выпуска: 1967

В ролях: Виктор Косых, Михаил Метёлкин, Василий Васильев, Валентина Курдюкова, Борис Сичкин, Лев Свердлин, Ефим Копелян, Владимир Трещалов, Инна Чурикова, Савелий Крамаров, Надежда Федосова,

Описание:
Первая часть бессмертного советского истерна о приключениях четырех подростков во время гражданской войны. Банда атамана Бурнаша грабит и без того бедных жителей небольшого украинского села. Пьют, можно сказать, эксплуататоры народную кровь. Четверка юных героев - гимназист Валерка, крестьянский паренек Данька, его сестра Ксанка и Яшка-цыган - решают помочь селянам и вступают в неравную борьбу с мародерами и врагами советской власти. Именно с этого исторического момента и начинаются захватывающие приключения юных партизан, которым дали прозвище "неуловимые". У ребят есть еще одно важное дело. Близкий друг Бурнаша, атаман Сидор Лютый, убил отца Даньки и Ксанки прямо у них на глазах. Ребята считают своим долгом отомстить злодею. Под видом сына казака Семена Кандыбы, давнего приятеля батьки Бурнаша, Данька внедряется в банду атамана. "А вдоль дороги мертвые с косами стоять! И тишина..."




Видео: 704x304 (2.35:1), 25 fps, XviD 1.2.1. 2337 kbps avg, 0.437 bit/pixel
Аудио: 48 kHz, AC3 Dolby Digital, 3/2 (L,C,R,l,r) + LFE ch, 448.00 kbps avg

Полное имя : Neulovimye mstiteli.avi
Формат : AVI
Формат/Информация : Audio Video Interleave
Размер файла : 1,44 Гбайт
Продолжительность : 1 ч. 13 м.
Общий поток : 2795 Кбит/сек
Программа кодирования : VirtualDubMod 1.5.10.3 (build 2550/release)
Библиотека кодирования : VirtualDubMod build 2550/release

Видео
Идентификатор : 0
Формат : MPEG-4 Visual
Профиль формата : Advanced Simple@L5
Параметр BVOP формата : 1
Параметр QPel формата : Нет
Параметр GMC формата : Без точки перехода
Параметр матрицы формата : Выборочная
Режим смешивания : Сжатый битовый поток
Идентификатор кодека : XVID
Идентификатор кодека/Подсказка : XviD
Продолжительность : 1 ч. 13 м.
Битрейт : 2337 Кбит/сек
Ширина : 704 пикселя
Высота : 304 пикселя
Соотношение сторон : 2,35:1
Частота кадров : 25,000 кадров/сек
Цветовое пространство : YUV
Субдискретизация насыщенности : 4:2:0
Битовая глубина : 8 бит
Тип развёртки : Прогрессивная
Метод сжатия : С потерями
Бит/(Пиксели*Кадры) : 0.437
Размер потока : 1,21 Гбайт (84%)
Библиотека кодирования : XviD 1.2.1 (UTC 2008-12-04)

Аудио
Идентификатор : 1
Формат : AC-3
Формат/Информация : Audio Coding 3
Расширение режима : CM (complete main)
Идентификатор кодека : 2000
Продолжительность : 1 ч. 13 м.
Вид битрейта : Постоянный
Битрейт : 448 Кбит/сек
Каналы : 6 каналов
Расположение каналов : Front: L C R, Side: L R, LFE
Частота : 48,0 КГц
Битовая глубина : 16 бит
Метод сжатия : С потерями
Задержка видео : 2 с. 107 мс.
Размер потока : 236 Мбайт (16%)
Выравнивание : Разделение по промежуткам
Продолжительность промежутка : 40 мс. (1,00 видеокадр)
Время предзагрузки промежутка : 500 мс.




_________________
Проголосуй за трекер Открытый торрент трекер - RUS-MEDIA.ORG

Проголосуй Открытый торрент трекер - RUS-MEDIA.ORG



реклама партнёра


Вернуться к началу
 Профиль Отправить личное сообщение  
 
   Похожие торренты   Автор   Торрент   Размер 
В этой теме нет новых непрочитанных сообщений. Неуловимые мстители снова в бою (2004) DVDRip

salma3

2 | 1

1.36 ГБ

В этой теме нет новых непрочитанных сообщений. Маша и Медведь. Неуловимые мстители [Серия 51] (Олег Кузовков, Олег Ужинов, Денис Червяцов) [Мультсериал, сказка, детский, семейный, 2015] WEBRip

Dracon

6 | 0

94.65 МБ

В этой теме нет новых непрочитанных сообщений. Маша и Медведь. Неуловимые мстители [51] (Олег Кузовков, Олег Ужинов, Денис Червяцов) [Мультсериал, сказка, детский, семейный, 2015] WEB-DLRip 1080p

Dracon

10 | 0

189.29 МБ

В этой теме нет новых непрочитанных сообщений. Мстители: Гримм / Avengers Grimm [фантастика, фэнтези, боевик, приключения, 2015] WEB-DLRip, Avo

salma3

682 | 28

1.37 ГБ

В этой теме нет новых непрочитанных сообщений. Мстители: Гримм / Avengers Grimm [фантастика, фэнтези, боевик, приключения, 2015] WEB-DL 720p, Avo+Sub

salma3

438 | 24

2.69 ГБ

В этой теме нет новых непрочитанных сообщений. Мстители: Эра Альтрона / Avengers: Age of Ultron [Фантастика, фэнтези, боевик, приключения, 2015] HD 1080p, Dub [Трейлер]

salma3

713 | 16

128.13 МБ

В этой теме нет новых непрочитанных сообщений. Мстители: Эра Альтрона / Avengers: Age of Ultron (Джосс Уидон) [фантастика, боевик, триллер, приключения, 2015] Blu-Ray CEE, Dub+Sub [Лицензия]

Dracon

200 | 66

39.22 ГБ


Начать новую тему Ответить на тему  [ 1 сообщение ] 




Для Мосгорсуда, Роскомнадзора и рекламодателей:: mosgorsud-torrent[собачка]yandex.ru