Торрент файл
скачать торрент магнет ссылка Добавлен: 02 янв 2017, 13:45
Размер: 1.37 ГБ
Сидеров: 40
Личеров: 5
Статус: (salma3)
Автор

СообщениеДобавлено: 02 янв 2017, 13:45 

Не в сети
Супермодератор
Аватара пользователя
Дата регистрации:
15 фев 2012, 16:44
Возраст: 27
Спасибо: 5700 / 2108
Сообщения: 24754
Формат: WEB-DLRip, AVI, XviD, AC3
Режиссер: Георгий Данелия
Жанр: комедия
Продолжительность: 01:31:24
Год выпуска: 1977

В ролях: Вахтанг Кикабидзе, Фрунзик Мкртчян, Елена Проклова, Евгений Леонов, Руслан Микаберидзе, Закро Сахвадзе, Марина Дюжева, Арчил Гомиашвили, Валентина Титова, Владимир Басов ст., Зейнаб Боцвадзе, Борислав Брондуков, Василий Чхаидзе, Котэ Даушвили, Николай Граббе, Эдуард Изотов, Ипполит Хвичия, Заза Колелишвили, Савелий Крамаров, Леонид Куравлёв, Абессалом Лория, Русико Морчаладзе, Марина Поляк

Описание: «Мимино» – по-грузински «сокол». Так называют друзья героя фильма, летчика Валико Мизандари, по воле режиссера то и дело попадающего в смешные, грустные, а порой драматические ситуации. Работая в родном горном селении, Мимино перевозит на вертолете почту, фрукты, овец. Но он давно мечтает о настоящей, большой авиации. Наконец ему удается воплотить свою мечту в жизнь…




Видео: 720x528 (4:3), 25 fps, XviD ~1690 kbps avg, 0.178 bit/pixel
Аудио: 48 kHz, AC3 Dolby Digital, 3/2 (L,C,R,l,r) + LFE ch, ~448.00 kbps
Общее
Полное имя : Mimino.1977.WEB-DLRip.avi
Формат : AVI
Формат/Информация : Audio Video Interleave
Размер файла : 1,37 Гбайт
Продолжительность : 1 ч. 31 м.
Общий поток : 2147 Кбит/сек
Название фильма : Мимино (1977)
Режиссёр : *** stillet ***
Тема : комедия
Программа кодирования : VirtualDubMod 1.5.10.3 (build 2550/release)
Библиотека кодирования : VirtualDubMod build 2550/release

Видео
Идентификатор : 0
Формат : MPEG-4 Visual
Профиль формата : Advanced Simple@L5
Параметр BVOP формата : 2
Параметр QPel формата : Нет
Параметр GMC формата : Без точки перехода
Параметр матрицы формата : Выборочная
Идентификатор кодека : XVID
Идентификатор кодека/Подсказка : XviD
Продолжительность : 1 ч. 31 м.
Битрейт : 1690 Кбит/сек
Ширина : 720 пикселей
Высота : 528 пикселей
Соотношение сторон : 4:3
Частота кадров : 25,000 кадров/сек
Цветовое пространство : YUV
Субдискретизация насыщенности : 4:2:0
Битовая глубина : 8 бит
Тип развёртки : Прогрессивная
Метод сжатия : С потерями
Бит/(Пиксели*Кадры) : 0.178
Размер потока : 1,08 Гбайт (79%)
Библиотека кодирования : XviD 73

Аудио
Идентификатор : 1
Формат : AC-3
Формат/Информация : Audio Coding 3
Расширение режима : CM (complete main)
Параметр Endianness формата : Big
Идентификатор кодека : 2000
Продолжительность : 1 ч. 31 м.
Вид битрейта : Постоянный
Битрейт : 448 Кбит/сек
Каналы : 6 каналов
Расположение каналов : Front: L C R, Side: L R, LFE
Частота : 48,0 КГц
Метод сжатия : С потерями
Размер потока : 292 Мбайт (21%)
Выравнивание : Разделение по промежуткам
Продолжительность промежутка : 40 мс. (1,00 видеокадр)
Время предзагрузки промежутка : 500 мс.




_________________
Проголосуй за трекер Открытый торрент трекер - RUS-MEDIA.ORG




реклама партнёра


Вернуться к началу
 Профиль Отправить личное сообщение  
 
   Похожие торренты   Автор   Торрент   Размер 
В этой теме нет новых непрочитанных сообщений. Мимино [комедия, 1977] DVDRip-AVC

salma3

55 | 5

1.46 ГБ

В этой теме нет новых непрочитанных сообщений. Мимино [комедия, 1977] HDTVRip 720р

salma3

241 | 12

2.88 ГБ

В этой теме нет новых непрочитанных сообщений. Пляжный домик / Casotto [комедия, 1977] DVDRip, Avo

salma3

921 | 131

1.45 ГБ

В этой теме нет новых непрочитанных сообщений. Невезучий папарацци / Ecco noi per esempio... [комедия, 1977] DVDRip-AVC, Avo

salma3

93 | 17

2.21 ГБ

В этой теме нет новых непрочитанных сообщений. Солянка по-кентуккийски / The Kentucky Fried Movie [комедия, 1977] BDRip 720p, Dvo+Avo+Sub

salma3

317 | 21

3.72 ГБ

В этой теме нет новых непрочитанных сообщений. Величайший любовник в мире / The World's Greatest Lover [комедия, 1977] DVDRip, Mvo

salma3

9 | 8

1.46 ГБ

В этой теме нет новых непрочитанных сообщений. Коварство / Chacha Bhatija [боевик, драма, комедия, семейный, 1977] DVDRip. Avo

salma3

3 | 7

1.56 ГБ


Начать новую тему Ответить на тему  [ 1 сообщение ] 




Для Мосгорсуда, Роскомнадзора и рекламодателей:: mosgorsud-torrent[собачка]yandex.ru