Торрент файл
скачать торрент магнет ссылка Добавлен: 02 янв 2017, 13:42
Размер: 2.88 ГБ
Сидеров: 241
Личеров: 12
Статус: (salma3)
Автор

СообщениеДобавлено: 02 янв 2017, 13:42 

В сети
Супермодератор
Аватара пользователя
Дата регистрации:
15 фев 2012, 16:44
Возраст: 28
Спасибо: 6656 / 2146
Сообщения: 46014
Перевод: Не требуется, cубтитры: отсутствуют
Формат: HDTVRip, MKV, H.264, AC3
Страна: СССР
Режиссер: Георгий Данелия
Жанр: комедия
Продолжительность: 01:31:11
Год выпуска: 1977

В ролях: Вахтанг Кикабидзе, Фрунзик Мкртчян, Елена Проклова, Евгений Леонов, Руслан Микаберидзе, Закро Сахвадзе, Марина Дюжева, Арчил Гомиашвили, Валентина Титова, Александр Алексеев,

Описание: «Мимино» — по-грузински «сокол». Так называют друзья героя фильма, летчика Валико Мизандари, по воле режиссера то и дело попадающего в смешные, грустные, а порой драматические ситуации. Работая в родном горном селении, Мимино перевозит на вертолете почту, фрукты, овец. Но он давно мечтает о настоящей, большой авиации. Наконец ему удается воплотить свою мечту в жизнь…



Видео: 986x720p (4:3), 25 fps, MPEG4 AVC (х264) , 3950 Kbps, 0.223 bit/pixel
Аудио#1: 48 kHz, AC3 Dolby Digital, 3/2 (L,C,R,l,r) + LFE ch, ~384.00 kbps avg
Аудио#2: 48 kHz, AC3 Dolby Digital, 1/0, ~192.00 kbps avg

Релиз от:

Общее
Уникальный идентификатор : 224179975683909778443502803186506560240 (0xA8A77E28CE9356FC8908547A2CF472F0)
Полное имя : R:\МОИ РИПЫ\Мимино_1977-HDTVRip.720p.mkv
Формат : Matroska
Версия формата : Version 2
Размер файла : 2,88 Гбайт
Продолжительность : 1 ч. 31 м.
Общий поток : 4528 Кбит/сек
Дата кодирования : UTC 2015-07-06 08:08:53
Программа кодирования : mkvmerge v5.8.0 ('No Sleep / Pillow') built on Sep 2 2012 15:37:04
Библиотека кодирования : libebml v1.2.3 + libmatroska v1.3.0

Видео
Идентификатор : 1
Формат : AVC
Формат/Информация : Advanced Video Codec
Профиль формата :
Параметр CABAC формата : Да
Параметр ReFrames формата : 11 кадров
Идентификатор кодека : V_MPEG4/ISO/AVC
Битрейт : 3950 Кбит/сек
Ширина : 986 пикселей
Высота : 720 пикселей
Соотношение сторон : 4:3
Режим частоты кадров : Переменный
Частота кадров в оригинале : 25,000 кадров/сек
Цветовое пространство : YUV
Субдискретизация насыщенности : 4:2:0
Битовая глубина : 8 бит
Тип развёртки : Прогрессивная
Бит/(Пиксели*Кадры) : 0.223
Библиотека кодирования : x264 core 146 r2538 121396c
Настройки программы : cabac=1 / ref=11 / deblock=1:-3:-2 / analyse=0x3:0x113 / me=umh / subme=10 / psy=1 / psy_rd=1.05:0.12 / mixed_ref=1 / me_range=32 / chroma_me=1 / trellis=2 / 8x8dct=1 / cqm=0 / deadzone=21,11 / fast_pskip=0 / chroma_qp_offset=-3 / threads=12 / lookahead_threads=2 / sliced_threads=0 / nr=0 / decimate=0 / interlaced=0 / bluray_compat=0 / constrained_intra=0 / bframes=8 / b_pyramid=2 / b_adapt=2 / b_bias=0 / direct=3 / weightb=1 / open_gop=0 / weightp=2 / keyint=250 / keyint_min=25 / scenecut=40 / intra_refresh=0 / rc_lookahead=40 / rc=2pass / mbtree=1 / bitrate=3950 / ratetol=1.0 / qcomp=0.65 / qpmin=0 / qpmax=69 / qpstep=4 / cplxblur=20.0 / qblur=0.5 / vbv_maxrate=50000 / vbv_bufsize=62500 / nal_hrd=none / filler=0 / ip_ratio=1.40 / aq=1:1.00
Язык : English
Default : Да
Forced : Нет
Основные цвета : BT.709
Характеристики трансфера : BT.709
Коэффициенты матрицы : BT.709

Аудио #1
Идентификатор : 2
Формат : AC-3
Формат/Информация : Audio Coding 3
Расширение режима : CM (complete main)
Параметр Endianness формата : Big
Идентификатор кодека : A_AC3
Продолжительность : 1 ч. 31 м.
Вид битрейта : Постоянный
Битрейт : 384 Кбит/сек
Каналы : 6 каналов
Расположение каналов : Front: L C R, Side: L R, LFE
Частота : 48,0 КГц
Битовая глубина : 16 бит
Метод сжатия : С потерями
Размер потока : 250 Мбайт (8%)
Язык : Russian
Default : Да
Forced : Нет

Аудио #2
Идентификатор : 3
Формат : AC-3
Формат/Информация : Audio Coding 3
Расширение режима : CM (complete main)
Параметр Endianness формата : Big
Идентификатор кодека : A_AC3
Продолжительность : 1 ч. 31 м.
Вид битрейта : Постоянный
Битрейт : 192 Кбит/сек
Каналы : 1 канал
Расположение каналов : Front: C
Частота : 48,0 КГц
Битовая глубина : 16 бит
Метод сжатия : С потерями
Задержка видео : 16 мс.
Размер потока : 125 Мбайт (4%)
Язык : Russian
Default : Нет
Forced : Нет




_________________
Проголосуй за трекер Открытый торрент трекер - RUS-MEDIA.ORG

Проголосуй Открытый торрент трекер - RUS-MEDIA.ORG



реклама партнёра


Вернуться к началу
 Профиль Отправить личное сообщение  
 
   Похожие торренты   Автор   Торрент   Размер 
В этой теме нет новых непрочитанных сообщений. Мимино [комедия, 1977] DVDRip-AVC

salma3

55 | 5

1.46 ГБ

В этой теме нет новых непрочитанных сообщений. Мимино [комедия, 1977] DVDRip-AVC

salma3

23 | 7

1.75 ГБ

В этой теме нет новых непрочитанных сообщений. Мимино [комедия, 1977] WEB-DLRip

salma3

40 | 5

1.37 ГБ

В этой теме нет новых непрочитанных сообщений. Возвращение Фантоцци / Fantozzi - Il ritorno [комедия, 1996] HDTVRip 720р, Mvo

salma3

32 | 22

4.49 ГБ

В этой теме нет новых непрочитанных сообщений. Без обид / No Offence [S02] [драма, комедия, криминал, 2017] HDTVRip 720р, Mvo [ViruseProject]

salma3

41 | 73

7.11 ГБ

В этой теме нет новых непрочитанных сообщений. Искатели сокровищ / Detectorists [S02x01-07 из 07] (Маккензи Крук) [2015, Драма, комедия, HDTVRip 720р | Lord32x Studio]

Dracon

2 | 0

4.19 ГБ

В этой теме нет новых непрочитанных сообщений. Королевы крика / Scream Queens [02х01-05 из 13] ( ужасы, комедия, детектив, 2016) HDTVRip 720р | Sunshine Studio

marya111

6 | 46

4.51 ГБ


Начать новую тему Ответить на тему  [ 1 сообщение ] 




Для Мосгорсуда, Роскомнадзора и рекламодателей:: mosgorsud-torrent[собачка]yandex.ru