Торрент файл
скачать торрент магнет ссылка Добавлен: 02 янв 2017, 13:36
Размер: 1.52 ГБ
Сидеров: 52
Личеров: 7
Статус: (salma3)
Автор

СообщениеДобавлено: 02 янв 2017, 13:36 

В сети
Супермодератор
Аватара пользователя
Дата регистрации:
15 фев 2012, 16:44
Возраст: 27
Спасибо: 6068 / 2117
Сообщения: 29774
Формат: DVDRip-AVC, MKV, H.264, AC3
Режиссер: Олег Ленциус
Жанр: военный
Продолжительность: 01:17:45
Год выпуска: 1960

В ролях: Борис Дмоховский, Григорий Михайлов, Василий Векшин, Андрей Хлебников, Михаил Пуговкин, Наталья Наум, Павел Дубашинский, Анвар Тураев, Борис Харитонов, Николай Козленко, Владимир Мишаков, Владимир Коршун, Александр Ануров, Владимир Волков, Алексей Бунин, Степан Бирилло, Николай Крюков, Владислав Болеславский

Описание: О героической команде бронепоезда N56, совершившей легендарный подвиг в первые дни Великой Отечественной войны на Украине.
Идёт 25-й день Великой Отечественной войны. Советская армия ведёт ожесточенные бои в котле под Каневом, пытаясь не подпустить врага к Киеву. Зная, что у советских частей заканчиваются боеприпасы, нацистское командование начинает операцию "Пантера" по молниеносному захвату и разгрому защитников Киева. Единственная надежда попавших в окружение войск – бронепоезд №56. Его задача – остановить продвижение фашистов и прорвать кольцо осады, создав спасительный коридор для русских солдат.




Видео: 716x468@1019x468 (2,2:1), 25 fps, AVC MPEG-4 (x264), , ~ 2580 kbps avg, 0.308 bit/pixel
Аудио: 48 kHz, AC3 Dolby Digital, 2/0 (L,R) ch, ~224 kbps
Общее
Уникальный идентификатор : 235083372189736133689709687583974147206 (0xB0DB691C9BA9536EA3ED6AE44D8CC486)
Полное имя : C:\Kreposty.na.kolesakh.1960.DVDRip.AVC.mkv
Формат : Matroska
Версия формата : Version 2
Размер файла : 1,52 Гбайт
Продолжительность : 1 ч. 17 м.
Общий поток : 2805 Кбит/сек
Название фильма : Крепость на колёсах 1960 from ExKinoRay
Дата кодирования : UTC 2016-12-27 02:07:58
Программа кодирования : mkvmerge v7.6.0 ('Garden of Dreams') 32bit built on Feb 11 2015 00:18:47
Библиотека кодирования : libebml v1.3.1 + libmatroska v1.4.2

Видео
Идентификатор : 1
Формат : AVC
Формат/Информация : Advanced Video Codec
Профиль формата :
Параметр CABAC формата : Да
Параметр ReFrames формата : 12 кадров
Идентификатор кодека : V_MPEG4/ISO/AVC
Продолжительность : 1 ч. 17 м.
Битрейт : 2580 Кбит/сек
Ширина : 716 пикселей
Высота : 468 пикселей
Соотношение сторон : 2,2:1
Соотношение сторон в оригинале : 2,2:1
Режим частоты кадров : Постоянный
Частота кадров : 25,000 кадров/сек
Цветовое пространство : YUV
Субдискретизация насыщенности : 4:2:0
Битовая глубина : 8 бит
Тип развёртки : Прогрессивная
Бит/(Пиксели*Кадры) : 0.308
Размер потока : 1,37 Гбайт (90%)
Заголовок : Enigma
Библиотека кодирования : x264 core 144 r2525 40bb568
Настройки программы : cabac=1 / ref=12 / deblock=1:-2:-2 / analyse=0x3:0x133 / me=umh / subme=10 / psy=1 / psy_rd=1.05:0.10 / mixed_ref=1 / me_range=32 / chroma_me=1 / trellis=2 / 8x8dct=1 / cqm=0 / deadzone=21,11 / fast_pskip=1 / chroma_qp_offset=-3 / threads=12 / lookahead_threads=3 / sliced_threads=0 / nr=0 / decimate=1 / interlaced=0 / bluray_compat=0 / constrained_intra=0 / bframes=10 / b_pyramid=2 / b_adapt=2 / b_bias=0 / direct=3 / weightb=1 / open_gop=0 / weightp=2 / keyint=250 / keyint_min=25 / scenecut=40 / intra_refresh=0 / rc=2pass / mbtree=0 / bitrate=2580 / ratetol=1.0 / qcomp=0.65 / qpmin=0 / qpmax=51 / qpstep=4 / cplxblur=20.0 / qblur=0.5 / ip_ratio=1.40 / pb_ratio=1.30 / aq=3:1.00
Default : Да
Forced : Нет
Цветовой диапазон : Limited
Основные цвета : BT.601 PAL
Характеристики трансфера : BT.470 System B, BT.470 System G
Коэффициенты матрицы : BT.601

Аудио
Идентификатор : 2
Формат : AC-3
Формат/Информация : Audio Coding 3
Расширение режима : CM (complete main)
Параметр Endianness формата : Big
Идентификатор кодека : A_AC3
Продолжительность : 1 ч. 17 м.
Вид битрейта : Постоянный
Битрейт : 224 Кбит/сек
Каналы : 2 канала
Расположение каналов : Front: L R
Частота : 48,0 КГц
Частота кадров : 31,250 кадров/сек (1536 spf)
Битовая глубина : 16 бит
Метод сжатия : С потерями
Размер потока : 125 Мбайт (8%)
Язык : Russian
Default : Да
Forced : Нет




_________________
Проголосуй за трекер Открытый торрент трекер - RUS-MEDIA.ORG

Проголосуй Открытый торрент трекер - RUS-MEDIA.ORG



реклама партнёра


Вернуться к началу
 Профиль Отправить личное сообщение  
 
   Похожие торренты   Автор   Торрент   Размер 
В этой теме нет новых непрочитанных сообщений. Крепость: щитом и мечом (Федор Дмитриев) [мультфильм, приключения, военный, 2015] HDRip [Лицензия]

Dracon

312 | 99

1.36 ГБ

В этой теме нет новых непрочитанных сообщений. Крепость: щитом и мечом (Федор Дмитриев) [мультфильм, приключения, военный, 2015] BDRip 720p [Лицензия]

Dracon

74 | 48

3.73 ГБ

В этой теме нет новых непрочитанных сообщений. Крепость: щитом и мечом (Федор Дмитриев) [мультфильм, приключения, военный, 2015] BDRip 1080p [Лицензия]

Dracon

65 | 3

6.92 ГБ

В этой теме нет новых непрочитанных сообщений. Самый дурацкий корабль в армии / The Wackiest Ship in the Army [комедия, военный, 1960] WEBRip 1080p, Mvo

salma3

41 | 15

10.28 ГБ

В этой теме нет новых непрочитанных сообщений. Буря в тихом океане / Hawai Middowei daikaikûsen: Taiheiyô no arashi [драма, военный, история, 1960] WEB-DLRip, Avo

salma3

87 | 4

1.44 ГБ

В этой теме нет новых непрочитанных сообщений. Ад на колесах / In the Red [боевик, 1999] DVDRip, Mvo

salma3

2 | 4

1.37 ГБ

В этой теме нет новых непрочитанных сообщений. Тайная крепость / La Forteresse suspendue [комедия, приключения, 2001] DVDRip, Mvo

salma3

23 | 2

1.43 ГБ


Начать новую тему Ответить на тему  [ 1 сообщение ] 




Для Мосгорсуда, Роскомнадзора и рекламодателей:: mosgorsud-torrent[собачка]yandex.ru