Торрент файл
скачать торрент магнет ссылка Добавлен: 28 май 2015, 15:46
Размер: 7.16 ГБ
Сидеров: 1
Личеров: 0
Автор

СообщениеДобавлено: 28 май 2015, 15:46 

Не в сети
Зам. Админа
Аватара пользователя
Дата регистрации:
02 дек 2010, 12:39
Спасибо: 12460 / 214
Сообщения: 27968
Год выхода: 1965
Жанр: Комедия,Мелодрама
Режиссер: Леонид Гайдай
В ролях: Александр Демьяненко, Алексей Смирнов (I), Наталья Селезнёва, Георгий Вицин, Евгений Моргунов, Юрий Никулин, Михаил Пуговкин, Владимир Басов, Владимир Раутбарт, Виктор Павлов, Владимир Владиславский, Мария Кравчуновская, Эммануил Геллер, Рина Зелёная, Виктор Уральский, Георгий Ахундов, Валентина Березуцкая, Светлана Агеева, Валерий Носик, Георгий Георгиу, Людмила Ковалец, Владимир Гуляев, Владимир Удалов, Игорь Суровцев, Нина Делекторская

О фильме: Фильм состоит из трех новелл, объединенных фигурой главного героя Шурика, попадающего в самые невероятные ситуации. В «Напарнике» Шурик сражается с хулиганом Верзилой; в «Наваждении» весьма оригинальным способом готовится к экзамену; в «Операции «Ы» предотвращает «ограбление века», на которое идет знаменитая тройка — Балбес, Трус и Бывалый.

Полная реставрация изображения и звука. Исходные киноматериалы подготовлены Госфильмофондом России. Покадровая цифровая реставрация изображения, ремастеринг звука и авторинг проведены объединением «Крупный план».



Качество: BDRip [1080p]
Видео: MPEG4 (AVC), 1420x1080, 23.976 fps, 10.2 Mbit/s
Аудио: AC3, 48 kHz, 6 ch, 640 kbit/s
Продолжительность: 01:34:33
Перевод: Не требуется

Operatsiya.Y.I.Drugie.Priklyucheniya.Shurika.1965.RUS.BDRip.1080p.x264.AC3.mkv
  General
    Unique ID : 199313866650206201740636454603298694946 (0x95F274544CEE0A45A54AFCB5B7F7E722)
    Complete name :Operatsiya.Y.I.Drugie.Priklyucheniya.Shurika.1965.RUS.BDRip.1080p.x264.AC3.mkv
    Format : Matroska
    Format version : Version 2
    File size : 7.16 GiB
    Duration : 1h 34mn
    Overall bit rate : 10.8 Mbps
    Movie name : CMEGRoup
    Encoded date : UTC 2013-12-11 13:19:47
    Writing application : mkvmerge v5.6.0 ('Kenya Kane') built on May 27 2012 16:44:04
    Writing library : libebml v1.2.3 + libmatroska v1.3.0
  Video #1
    ID : 1
    Format : AVC
    Format/Info : Advanced Video Codec
    Format profile : High@L4.1
    Format settings, CABAC : Yes
    Format settings, ReFrames : 4 frames
    Codec ID : V_MPEG4/ISO/AVC
    Duration : 1h 34mn
    Bit rate : 10.2 Mbps
    Width : 1 420 pixels
    Height : 1 080 pixels
    Display aspect ratio : 4:3
    Frame rate mode : Constant
    Frame rate : 23.976 fps
    Color space : YUV
    Chroma subsampling : 4:2:0
    Bit depth : 8 bits
    Scan type : Progressive
    Bits/(Pixel*Frame) : 0.277
    Stream size : 6.60 GiB (92%)
    Writing library : x264 core 132 r2310 76a5c3a
    Encoding settings : cabac=1 / ref=4 / deblock=1:-3:-3 / analyse=0x3:0x113 / me=umh / subme=10 / psy=1 / psy_rd=1.00:0.00 / mixed_ref=1 / me_range=24 / chroma_me=1 / trellis=2 / 8x8dct=1 / cqm=0 / deadzone=21,11 / fast_pskip=1 / chroma_qp_offset=-2 / threads=6 / lookahead_threads=1 / sliced_threads=0 / nr=0 / decimate=1 / interlaced=0 / bluray_compat=0 / constrained_intra=0 / bframes=5 / b_pyramid=2 / b_adapt=2 / b_bias=0 / direct=2 / weightb=0 / open_gop=0 / weightp=2 / keyint=240 / keyint_min=23 / scenecut=40 / intra_refresh=0 / rc_lookahead=40 / rc=2pass / mbtree=1 / bitrate=10200 / ratetol=1.0 / qcomp=0.60 / qpmin=0 / qpmax=69 / qpstep=4 / cplxblur=20.0 / qblur=0.5 / vbv_maxrate=62500 / vbv_bufsize=78125 / nal_hrd=none / ip_ratio=1.40 / aq=1:1.00
    Language : English
    Default : Yes
    Forced : No
  Audio #2
    ID : 2
    Format : AC-3
    Format/Info : Audio Coding 3
    Mode extension : CM (complete main)
    Format settings, Endianness : Big
    Codec ID : A_AC3
    Duration : 1h 34mn
    Bit rate mode : Constant
    Bit rate : 640 Kbps
    Channel(s) : 6 channels
    Channel positions : Front: L C R, Side: L R, LFE
    Sampling rate : 48.0 KHz
    Bit depth : 16 bits
    Compression mode : Lossy
    Stream size : 433 MiB (6%)
    Title : AC3 DD 5.1 @ 640 Kbps Original - Blu-Ray RUS
    Language : Russian
    Default : Yes
    Forced : Yes
  Menu
    00:00:00.000 : :Chapter 01
    00:03:46.935 : :Chapter 02
    00:08:52.615 : :Chapter 03
    00:13:58.629 : :Chapter 04
    00:17:53.322 : :Chapter 05
    00:25:03.502 : :Chapter 06
    00:31:35.893 : :Chapter 07
    00:35:16.948 : :Chapter 08
    00:41:43.584 : :Chapter 09
    00:45:58.630 : :Chapter 10
    00:52:43.160 : :Chapter 11
    00:57:14.055 : :Chapter 12
    01:03:11.037 : :Chapter 13
    01:06:33.489 : :Chapter 14
    01:13:24.608 : :Chapter 15
    01:15:08.212 : :Chapter 16
    01:20:51.513 : :Chapter 17
    01:29:02.003 : :Chapter 18
    01:34:28.079 : :Chapter 19

priest86 & bluebird by BluRayHunter





















реклама партнёра


Вернуться к началу
 Профиль  
 
   Похожие торренты   Автор   Торрент   Размер 
В этой теме нет новых непрочитанных сообщений. Кавказская пленница или новые приключения Шурика [Комедийная мелодрама, приключения, 1967] BDRip [КПК]

salma3

62 | 6

360.77 МБ

В этой теме нет новых непрочитанных сообщений. Большие гонки / The Great Race [Мелодрама,Комедия,Приключения, 1965] BDRip 720p, Dub+2Mvo+Sub

salma3

1 | 2

7.18 ГБ

В этой теме нет новых непрочитанных сообщений. 002: Операция Луна / 002 Operazione Luna [Комедия, 1965] DVDRip, Avo

salma3

18 | 4

1.37 ГБ

В этой теме нет новых непрочитанных сообщений. Операция «Святой Януарий» / Operazione San Gennaro [комедия, криминал, мелодрама, 1966] DVDRip, Dub

salma3

11 | 2

1.37 ГБ

В этой теме нет новых непрочитанных сообщений. Приключения Джо Грязнули / Joe Dirt [Комедия, мелодрама, приключения, детектив, 2001] BDRip 1080p, Mvo

salma3

37 | 5

8.14 ГБ

В этой теме нет новых непрочитанных сообщений. Большие гонки / The Great Race [Мелодрама, комедия, семейный, спорт, 1965] BDRemux 1080p, 2Mvo+Dub+Sub

salma3

13 | 4

42.05 ГБ

В этой теме нет новых непрочитанных сообщений. Вива Мария! / Viva Maria! [мелодрама, комедия, приключения, вестерн, 1965] HDTVRip, Dvo

salma3

13 | 7

1.53 ГБ


СообщениеДобавлено: 15 ноя 2016, 17:15 

Не в сети
Аватара пользователя
Дата регистрации:
04 ноя 2016, 19:07
Возраст: 34
Спасибо: 0 / 0
Сообщения: 104
Откуда: Madagascar
I think, that you are not right. I am assured. Write to me in PM, we will communicate.

_________________
fat burning food


Вернуться к началу
 Профиль Отправить личное сообщение  
 
Начать новую тему Ответить на тему  [ Сообщений: 2 ] 




Для Мосгорсуда, Роскомнадзора и рекламодателей:: mosgorsud-torrent[собачка]yandex.ru