Торрент файл
скачать торрент магнет ссылка Добавлен: 12 май 2015, 22:03
Размер: 2.73 ГБ
Сидеров: 77
Личеров: 1
Автор

СообщениеДобавлено: 12 май 2015, 22:03 

Не в сети
Зам. Админа
Аватара пользователя
Дата регистрации:
02 дек 2010, 12:39
Спасибо: 12461 / 214
Сообщения: 27968
Год выхода: 1975
Жанр: Военный, драма
Режиссер: Сергей Бондарчук
В ролях: Василий Шукшин, Вячеслав Тихонов, Сергей Бондарчук, Георгий Бурков, Юрий Никулин, Иван Лапиков, Николай Губенко, Андрей Ростоцкий, Николай Волков, Николай Шутько, Евгений Самойлов, Нонна Мордюкова, Иннокентий Смоктуновский, Ангелина Степанова, Ирина Скобцева, Татьяна Божок, Лидия Федосеева-Шукшина, Даниил Ильченко, Алексей Ванин, Николай Горлов, Геннадий Сафронов, Борис Никифоров, Анатолий Переверзев, Виталий Леонов, Михаил Чигарев, Станислав Бородокин, Леонид Трутнев, Пётр Меркурьев, Алексей Коняшин, Владимир Мышкин, Юнус Юсупов, Хашим Рахимов, Ермахмад Аралев, Александр Безыментов, Игорь Кузнецов, Виктор Волков, Коля Ефремов, Андрей Попов

О фильме: Июль 1942 года, Великая Отечественная война. На подступах к Сталинграду обескровленные, измотанные советские войска ведут тяжелые оборонительные бои, неся огромные потери. Небольшое стрелковое подразделение под командованием капитана Сумскова получило приказ: под огнём вражеской авиации и артиллерии обеспечить переправу через Дон советских воинских частей. На дороге - широкие следы танковых гусениц, чётко отпечатанные в серой пыли. А по сторонам - словно вымершая от зноя степь: устало полёгшие травы, тускло блестящие солончаки, голубое трепетное марево над дальними курганами. Четыре дня стояли насмерть у степного хутора солдаты - Стрельцов, Лопахин, Звягинцев - люди мирных профессий, которых война заставила надеть шинели...

Доп.информация: Исходник HDTVRip.720p. Полная версия. Длиннее обычной киноверсии на ~ 14 минут



Страна: СССР
Студия: Мосфильм
Продолжительность: 02:30:28
Перевод: Не требуется (оригинальный)

Формат: avi
Качество: HDTVRip (HDTVRip.720p)
Видео: XviD, 720x464, 25fps, 2398kbps
Аудио: AC3 Dolby Digital, 2ch, 48000Hz, 192kbps

General
Complete name : Oni.Srazhalis.Za.Rodinu.1975.O.HDTVRip.2800.MediaClub.CurHaJI.avi
Format : AVI
Format/Info : Audio Video Interleave
Format profile : OpenDML
File size : 2.73 GiB
Duration : 2h 30mn
Overall bit rate : 2 601 Kbps
Movie name : Oni.Srazhalis.Za.Rodinu.1975.O.HDTVRip.2800.MediaClub.CurHaJI
Writing application : Lavf53.13.0
Writing library : VirtualDub build 35491/release

Video
ID : 0
Format : MPEG-4 Visual
Format profile : Advanced Simple@L5
Format settings, BVOP : 2
Format settings, QPel : No
Format settings, GMC : No warppoints
Format settings, Matrix : Custom
Codec ID : XVID
Codec ID/Hint : XviD
Duration : 2h 30mn
Bit rate : 2 398 Kbps
Width : 720 pixels
Height : 464 pixels
Display aspect ratio : 1.552
Frame rate : 25.000 fps
Color space : YUV
Chroma subsampling : 4:2:0
Bit depth : 8 bits
Scan type : Progressive
Compression mode : Lossy
Bits/(Pixel*Frame) : 0.287
Stream size : 2.52 GiB (92%)
Writing library : XviD 64

Audio
ID : 1
Format : AC-3
Format/Info : Audio Coding 3
Mode extension : CM (complete main)
Format settings, Endianness : Big
Codec ID : 2000
Duration : 2h 30mn
Bit rate mode : Constant
Bit rate : 192 Kbps
Channel(s) : 2 channels
Channel positions : Front: L R
Sampling rate : 48.0 KHz
Bit depth : 16 bits
Compression mode : Lossy
Stream size : 207 MiB (7%)
Alignment : Aligned on interleaves
Interleave, duration : 40 ms (1.00 video frame)
Interleave, preload duration : 512 ms





реклама партнёра


Вернуться к началу
 Профиль  
 
   Похожие торренты   Автор   Торрент   Размер 
В этой теме нет новых непрочитанных сообщений. Битва за Севастополь / Незламна [01-04 из 04] (Сергей Мокрицкий) [Военный, ВОВ, драма, реальные события, 2015] HDTVRip [Расширенная Телеверсия]

Dracon

918 | 36

2.57 ГБ

В этой теме нет новых непрочитанных сообщений. Битва за Севастополь /Незламна (Расширенная телеверсия) (Серии 1-4 из 4) (Сергей Мокрицкий) [2015, Военный, ВОВ, драма, реальные события,HDTVRip-AVC 1080p ]

Враг Нароода

1 | 2

10.37 ГБ

В этой теме нет новых непрочитанных сообщений. Крым. Путь на родину (Россия) [Документальный, 15/03/2015] HDTVRip 720p

Dracon

783 | 13

3.67 ГБ

В этой теме нет новых непрочитанных сообщений. Виктор Цой и группа Кино - Новый мир (полная версия) [Rock, 2014] mp3, 320kb

Dracon

229 | 4

178.02 МБ

В этой теме нет новых непрочитанных сообщений. Красиво с Леной. (полная версия) [2014 г., Homemade,Russian,Blowjob,Straight,Creampie., CamRip]

friizze

27 | 3

102.29 МБ

В этой теме нет новых непрочитанных сообщений. Кон-Тики / Kon-Tiki (Хоаким Роннинг / Joachim Rønning, Эспен Сандберг / Espen Sandberg) [2012г., Норвегия, приключения, биография, история, BDRip] AVO (полная версия)

Alfredovich

199 | 16

2.18 ГБ

В этой теме нет новых непрочитанных сообщений. Земля, забытая временем / The Land That Time Forgot [Приключения, фантастика, драма, 1975] HDTVRip, Avo

salma3

102 | 10

742.81 МБ


Начать новую тему Ответить на тему  [ 1 сообщение ] 




Для Мосгорсуда, Роскомнадзора и рекламодателей:: mosgorsud-torrent[собачка]yandex.ru