Торрент файл
скачать торрент магнет ссылка Добавлен: 27 ноя 2014, 18:47
Размер: 751.02 МБ
Сидеров: 33
Личеров: 4
Автор

СообщениеДобавлено: 27 ноя 2014, 18:50 

Не в сети
Дата регистрации:
24 ноя 2014, 21:38
Спасибо: 1 / 0
Сообщения: 2
Название: Свадьба с приданым
Год выпуска: 1953
Жанр: Мюзикл, комедия
Продолжительность: 01:56:53

Режиссер: Т.Лукашевич, Б.Равенских

В ролях: В.Васильева, В.Ушаков, В.Дорофеев, К.Канаева, Т.Пельтцер, Б.Рунге и др.

Описание: Два бригадира соседних колхозов влюблены друг в друга. Она - известная ударница труда, он - трудолюбив, но в меру тщеславен. Ссора героев завершилась бы разрывом, если бы соревнование двух коллективов не привело бы к богатому урожаю в обоих хозяйствах и традиционной осенней свадьбе. Лидер проката 1953 года - 45,5 миллионов зрителей!

Субтитры: Отсутствуют
Семпл
Рип от:

Качество: DVDRip
Формат: AVI
Видео кодек: XviD
Аудио кодек: MP3
Видео: 640x480 (1.33:1), 25 fps, XviD build 73 ~760 kbps avg, 0.10 bit/pixel
Аудио: 48 kHz, MPEG Layer 3, 2 ch, ~128.00 kbps avg
General
Complete name : D:\Торрент\Мои рипы\Свадьба с приданым\Свадьба с приданым_Шкипер.avi
Format : AVI
Format/Info : Audio Video Interleave
File size : 751 MiB
Duration : 1h 56mn
Overall bit rate : 898 Kbps
Writing application : VirtualDubMod 1.5.10.3 | http://www.virtualdub-fr.org || (build 2550/release)
Writing library : VirtualDubMod build 2550/release

Video
ID : 0
Format : MPEG-4 Visual
Format profile : Advanced Simple@L5
Format settings, BVOP : 1
Format settings, QPel : No
Format settings, GMC : No warppoints
Format settings, Matrix : Default (MPEG)
Codec ID : XVID
Codec ID/Hint : XviD
Duration : 1h 56mn
Bit rate : 761 Kbps
Width : 640 pixels
Height : 480 pixels
Display aspect ratio : 4:3
Frame rate : 25.000 fps
Color space : YUV
Chroma subsampling : 4:2:0
Bit depth : 8 bits
Scan type : Progressive
Compression mode : Lossy
Bits/(Pixel*Frame) : 0.099
Stream size : 636 MiB (85%)
Writing library : XviD 73

Audio
ID : 1
Format : MPEG Audio
Format version : Version 1
Format profile : Layer 3
Mode : Joint stereo
Mode extension : MS Stereo
Codec ID : 55
Codec ID/Hint : MP3
Duration : 1h 56mn
Bit rate mode : Constant
Bit rate : 128 Kbps
Channel(s) : 2 channels
Sampling rate : 48.0 KHz
Compression mode : Lossy
Stream size : 107 MiB (14%)
Alignment : Aligned on interleaves
Interleave, duration : 40 ms (1.00 video frame)
Interleave, preload duratio : 504 ms
Writing library : LAME3.99r
Encoding settings : -m j -V 4 -q 2 -lowpass 17 -b 128

Не обращаем внимания на отсутствия сидов там их много




реклама партнёра


Вернуться к началу
 Профиль Отправить личное сообщение  
 
   Похожие торренты   Автор   Торрент   Размер 
В этой теме нет новых непрочитанных сообщений. Свадьба моей любимой / Mere Yaar Ki Shaadi Hai [Мюзикл, драма, мелодрама, комедия, 2002] HDRip, Mvo

salma3

22 | 3

1.46 ГБ

В этой теме нет новых непрочитанных сообщений. Свадьба моей любимой / Mere Yaar Ki Shaadi Hai [Мюзикл, драма, мелодрама, комедия, 2002] BDRip 1080p, Mvo

salma3

4 | 3

13.99 ГБ

В этой теме нет новых непрочитанных сообщений. Кербела / Karbala (Кшиштоф Лукашевич / Krzysztof Lukaszewicz) [2015г., Польша, военный, DVDRip] dvo

Alfredovich

2140 | 119

1.43 ГБ

В этой теме нет новых непрочитанных сообщений. Свадьба Бэтси / Betsy's Wedding [мелодрама, комедия, 1990] DVDRip, Avo

salma3

0 | 3

1.46 ГБ

В этой теме нет новых непрочитанных сообщений. Свадьба лучшей подруги / Im Namen der Braut [комедия, 2006] DVDRip, Mvo

salma3

200 | 7

1.46 ГБ

В этой теме нет новых непрочитанных сообщений. Свадьба на Рождество / A Christmas Wedding [Мелодрама,Комедия, 2006] DVDRip, Mvo

salma3

0 | 2

1.37 ГБ

В этой теме нет новых непрочитанных сообщений. Рождественская свадьба / A Christmas Wedding Date [мелодрама, комедия, 2012] DVDRip, Mvo

salma3

6 | 2

1.37 ГБ


Начать новую тему Ответить на тему  [ 1 сообщение ] 




Для Мосгорсуда, Роскомнадзора и рекламодателей:: mosgorsud-torrent[собачка]yandex.ru