Торрент файл
скачать торрент магнет ссылка Добавлен: 08 апр 2011, 18:36
Размер: 1.09 ГБ
Сидеров: 8
Личеров: 10
Автор

СообщениеДобавлено: 08 апр 2011, 18:36 

Не в сети
Супермодератор
Аватара пользователя
Дата регистрации:
22 май 2010, 11:03
Возраст: 32
Спасибо: 7690 / 13
Сообщения: 49871
[b]Подкидыш (цветная версия)[/b]


Формат: DVDRip-AVC, MKV, MPEG4, AC3

Режиссер: Татьяна Лукашевич

Жанр: комедия, семейный
Продолжительность: 01:10:02
Год выпуска: 1939 (2009, цветной)

В ролях: Вероника Лебедева, Фаина Раневская, Петр Репнин, Ростислав Плятт, Рина Зеленая, Ольга Жизнева, Татьяна Барышева, Дмитрий Глухов, Федор Одиноков, Николай Юдин

Описание: Маленькая Наташа вышла из дома и потерялась в большом городе. В ее судьбе приняли участие все, кого она встретила в своем увлекательном, полном веселых приключений путешествии. Все, конечно, закончилось хорошо. А пока Наташа блуждала по городу, она приобрела много друзей и среди взрослых и среди детей.



Видео: 704x560 (1.26:1), 25 fps, MPEG4/ISO/AVC, ~1759 kbps avg, 0.178 bit/pixel
Аудио:
#1 (Оригинал 1939 г. от AVV_UA): 48 kHz,AC3 Dolby Digita, 1 ch, ~96.00 kbps avg
#2 (Переозвучка 1987 г.): 48 kHz,AC3 Dolby Digita, 6/0 (Front: L, C, R; Side: L, R, LFE) ch, ~384.00 kbps avg

General
Unique ID: 248823438013840079407387462703993576278 (0xBB31A6A8D42E8C79BDF36535269BDB56)
Complete name: D:\ФИЛЬМЫ\ podkidysh_[tfile.ru].mkv
Format: Matroska
File size: 1.09 GiB
Duration: 1h 10mn
Overall bit rate: 2 233 Kbps
Movie name: Подкидыш (1939, цветной) ® RZ-7
Encoded date: UTC 2010-10-22 21:03:33
Writing application: mkvmerge v3.3.0 ('Language') built on Mar 24 2010 14:59:24
Writing library: libebml v0.8.0 + libmatroska v0.9.0

Video
ID: 1
Format: AVC
Format/Info: Advanced Video Codec
Format profile:
Format settings, CABAC: Yes
Format settings, ReFrames: 16 frames
Codec ID: V_MPEG4/ISO/AVC
Duration: 1h 10mn
Bit rate: 1 759 Kbps
Width: 704 pixels
Height: 560 pixels
Display aspect ratio: 4:3
Original display aspect ratio: 4:3
Frame rate: 25.000 fps
Color space: YUV
Chroma subsampling: 4:2:0
Bit depth: 8 bits
Scan type: Progressive
Bits/(Pixel*Frame): 0.178
Stream size: 856 MiB (77%)
Title: МОСФИЛЬМ, 1939, ч/б (2009, цветной), 9 ч., 2082 м., 76 мин. В ролях: Федор Одиноков, Вероника Лебедева, Дима Глухов, Фаина Раневская, Петр Репнин, Рина Зеленая, Ростислав Плятт, Ольга Жизнева, Татьяна Барышева, В. Громов, Эля Быковская, Витя Бойко, А. Старостин, С. Леута, Н. Арский, И. Лобызовский, Лева Анненский. Режиссер-постановщик: Татьяна Лукашевич. Авторы сценария: Агния Барто, Рина Зеленая.Оператор-постановщик: Семен Шейнин. Художник-постановщик: Валентин Комарденков. Композитор: Николай Крюков. Звукорежиссеры: Вячеслав Лещев, С. Егоров.
Writing library: x264 core 107 r1745 4785e8e

Audio #1
ID: 2
Format: AC-3
Format/Info: Audio Coding 3
Mode extension: CM (complete main)
Codec ID: A_AC3
Duration: 1h 10mn
Bit rate mode: Constant
Bit rate: 384 Kbps
Channel(s): 6 channels
Channel positions: Front: L, C, R; Side: L, R, LFE
Sampling rate: 48.0 KHz
Bit depth: 16 bits
Compression mode: Lossy
Stream size: 192 MiB (17%)
Title: DD5.1 AC3 384kbps (переозвучка 1987 г.)
Language: Russian

Audio #2
ID: 3
Format: AC-3
Format/Info: Audio Coding 3
Mode extension: CM (complete main)
Codec ID: A_AC3
Duration: 1h 10mn
Bit rate mode: Constant
Bit rate: 96.0 Kbps
Channel(s): 1 channel
Channel positions: Front: C
Sampling rate: 48.0 KHz
Bit depth: 16 bits
Compression mode: Lossy
Stream size: 48.1 MiB (4%)
Title: DD1.0 AC3 96kbps (оригинальный звук 1939 г. от AVV_UA)
Language: Russian












реклама партнёра


Вернуться к началу
 Профиль Отправить личное сообщение  
 
   Похожие торренты   Автор   Торрент   Размер 
В этой теме нет новых непрочитанных сообщений. Свадьба с приданым (Т.Лукашевич, Б.Равенских) [1953 г., Мюзикл, комедия, DVDRip]

Шкипер

33 | 4

751.02 МБ

В этой теме нет новых непрочитанных сообщений. Кербела / Karbala (Кшиштоф Лукашевич / Krzysztof Lukaszewicz) [2015г., Польша, военный, DVDRip] dvo

Alfredovich

2128 | 121

1.43 ГБ

В этой теме нет новых непрочитанных сообщений. Ранго. Расширенная версия / Rango. Extendet cut (Гор Вербински) [2011, мультфильм, комедия, приключения, семейный, вестерн, HQRip] R5

marya111

0 | 0

1.37 ГБ

В этой теме нет новых непрочитанных сообщений. В поисках Дори / Finding Dory (мультфильм, комедия, приключения, семейный, 2016) BDRip от ExKinoRay | Локализованная версия | Лицензия

marya111

442 | 65

1.46 ГБ

В этой теме нет новых непрочитанных сообщений. Зверополис / Zootopia (мультфильм, боевик, комедия, криминал, приключения, семейный, 2016) BDRip 1080p от New-Team & qqss44 | Локализованная версия | Лицензия

marya111

310 | 87

7.75 ГБ

В этой теме нет новых непрочитанных сообщений. Хороший динозавр / The Good Dinosaur (мультфильм, фэнтези, комедия, приключения, семейный, 2015) BDRip 1080p от New-Team & qqss44 | Локализованная версия | Лицензия

marya111

65 | 21

5.75 ГБ

В этой теме нет новых непрочитанных сообщений. Снупи и мелочь пузатая в кино [мультфильм, комедия, приключения, семейный, 2015] WEB-DL 1080p, Dub [iTunes]

Dracon

148 | 15

3.56 ГБ


Начать новую тему Ответить на тему  [ 1 сообщение ] 




Для Мосгорсуда, Роскомнадзора и рекламодателей:: mosgorsud-torrent[собачка]yandex.ru