Торрент файл
скачать торрент магнет ссылка Добавлен: 08 апр 2011, 18:29
Размер: 1.84 ГБ
Сидеров: 9
Личеров: 7
Автор

СообщениеДобавлено: 08 апр 2011, 18:29 

Не в сети
Супермодератор
Аватара пользователя
Дата регистрации:
22 май 2010, 11:03
Возраст: 31
Спасибо: 7509 / 13
Сообщения: 49940
Председатель


Формат: DVDRip, MP4, H.264, AC3

Режиссер: Алексей Салтыков

Жанр: Драма

Продолжительность: 02:35:28 (2 серии)

Год выпуска: 1964

В ролях: Михаил Ульянов, Иван Лапиков, Нонна Мордюкова, Лариса Блинова, Вячеслав Невинный, Валентина Владимирова, Николай Парфенов, Кира Головко, Антонина Богданова, Владимир Этуш, Сергей Курилов, Аркадий Трусов, Михаил Кокшенов, Сергей Голованов, Виталий Соломин

Описание:
Фронтовик Егор Трубников возвращается в родную деревню восстанавливать разоренное, нищее хозяйство. Тяжко ему приходится - почти как на войне. Став председателем, он взваливает на себя бремя ответственности не только за колхозные дела, но и за судьбы таких близких ему людей...


Рейтинг на:

Релиз группы:


Видео: 1024x576 (1.77:1), 25.00fps, MPEG4 Video (H264), 1500 kbps, 0.102 bit/pixel
Аудио: 48000Hz stereo, Dolby AC3,2 ch, 192 kbps

MediaInfo: General
Complete name: C:\Закачки\Фильмы\Predsedatel.mp4
Format: Matroska
File size: 1.84 GiB
Duration: 2h 35mn
Overall bit rate: 1 694 Kbps
Encoded date: UTC 2011-03-08 13:35:58
Writing application: mkvmerge v2.9.8 ('C'est le bon') built on Aug 24 2009 17:34:03
Writing library: libebml v0.7.7 + libmatroska v0.8.1

Video
ID: 1
Format: AVC
Format/Info: Advanced Video Codec
Format profile:
Format settings, CABAC: Yes
Format settings, ReFrames: 10 frames
Muxing mode: Container profile=Unknown@4.1
Codec ID: V_MPEG4/ISO/AVC
Duration: 2h 35mn
Bit rate: 1 500 Kbps
Width: 1 024 pixels
Height: 576 pixels
Display aspect ratio: 16:9
Frame rate: 25.000 fps
Color space: YUV
Chroma subsampling: 4:2:0
Bit depth: 8 bits
Scan type: Progressive
Bits/(Pixel*Frame): 0.102
Stream size: 1.59 GiB (87%)
Writing library: x264 core 75 r1251kMod e553a4c
Encoding settings: cabac=1 / ref=10 / deblock=1:-3:-3 / analyse=0x3:0x133 / me=umh / subme=10 / psy=1 / psy_rd=1.0:0.0 / mixed_ref=1 / me_range=32 / chroma_me=1 / trellis=2 / 8x8dct=1 / cqm=0 / deadzone=21,11 / chroma_qp_offset=-4 / threads=6 / nr=0 / decimate=1 / mbaff=0 / bframes=8 / b_pyramid=0 / b_adapt=1 / b_bias=0 / direct=3 / wpredb=1 / keyint=250 / keyint_min=25 / scenecut=40 / rc_lookahead=40 / rc=2pass / mbtree=1 / bitrate=1500 / ratetol=1.0 / qcomp=0.60 / qpmin=16 / qpmax=51 / qpstep=4 / cplxblur=20.0 / qblur=0.5 / ip_ratio=1.40 / aq=1:1.00
Language: Russian

Audio
ID: 2
Format: AC-3
Format/Info: Audio Coding 3
Mode extension: CM (complete main)
Codec ID: A_AC3
Duration: 2h 35mn
Bit rate mode: Constant
Bit rate: 192 Kbps
Channel(s): 2 channels
Channel positions: Front: L R
Sampling rate: 48.0 KHz
Stream size: 214 MiB (11%)
Language: Russian









реклама партнёра


Вернуться к началу
 Профиль Отправить личное сообщение  
 
   Похожие торренты   Автор   Торрент   Размер 
В этой теме нет новых непрочитанных сообщений. Берег скелетов / Coast of Skeletons [драма, приключения, 1964] DVDRip, Mvo

salma3

35 | 3

1.36 ГБ

В этой теме нет новых непрочитанных сообщений. Дворцовый переворот / La rivolta dei pretoriani [драма, приключения, боевик, 1964] DVDRip, Dvo

salma3

4 | 3

1.48 ГБ

В этой теме нет новых непрочитанных сообщений. Сеанс дождливым вечером / Seance on a Wet Afternoon [драма, криминал, 1964] DVDRip, Mvo

salma3

26 | 2

1.45 ГБ

В этой теме нет новых непрочитанных сообщений. Чума / Девяностые (Алексей Козлов, Александр Устюгов) (Сезон 1 , Серии 1-16 из 24) [2015 , Драма, криминал , HDTVRip 1080p]

Враг Нароода

В этой теме нет новых непрочитанных сообщений. Чума / Девяностые (Алексей Козлов, Александр Устюгов) (Сезон 1 , Серии 1-24 из 24) [2015 , Драма, криминал , HDTVRip-AVC 400p]

Враг Нароода

6 | 4

24.68 ГБ

В этой теме нет новых непрочитанных сообщений. Степная орда / I Predoni della steppa [Боевик, драма, приключения, 1964] DVDRip, Mvo

salma3

19 | 7

1.37 ГБ

В этой теме нет новых непрочитанных сообщений. Самое жуткое убийство / Murder Most Foul [триллер, драма, комедия, криминал, детектив, 1964] DVDRip, Avo

salma3

21 | 3

1.47 ГБ


Начать новую тему Ответить на тему  [ 1 сообщение ] 




Для Мосгорсуда, Роскомнадзора и рекламодателей:: mosgorsud-torrent[собачка]yandex.ru