Торрент файл
скачать торрент магнет ссылка Добавлен: 08 апр 2011, 15:31
Размер: 1.96 ГБ
Сидеров: 10
Личеров: 5
Автор

СообщениеДобавлено: 08 апр 2011, 15:31 

Не в сети
Супермодератор
Аватара пользователя
Дата регистрации:
22 май 2010, 11:03
Возраст: 31
Спасибо: 7509 / 13
Сообщения: 49940
Василий Буслаев


Формат: DVDRip, MP4, H.264 (AVC), AC3

Субтитры: Русские, английские, французскийе испанские, итальянские, голландские, японские, шведские, немецкие, португальские, иврит, арабские, китайские

Режиссер: Геннадий Васильев

Жанр: исторический, приключения

Продолжительность: 01:16:32

Год выпуска: 1982

В ролях: Дмитрий Золотухин, Людмила Хитяева, Ирина Алферова, Дмитрий Матвеев, Алексей Зайцев, Дмитрий Орловский, Валерий Носик, Татьяна Чернопятова, Наталья Крачковская, Михаил Кокшенов, Матлюба Алимова, Николай Погодин, Андрей Мартынов, Михаил Розанов

Описание:
Василий Буслаев - былинный русский богатырь, вставший на защиту свободы и независимости своего народа.
Сила и мощь Василия, сына Новгородского посадника (губернатора), водившего дружбу с простым народом, приводила в бешенство и нагоняла страх на
разжиревших купцов новгородских. Когда они узнали, что юноша собирается в поход во имя спасения своей земли от ворога, радости их не было границ.
Разве можно сломить ту силу великую! Но Василий кладет конец всяческим козням и доводит свою экспедицию до победного конца. Он возвращается домой героем
и еще привозит с собой зазнобу. Когда же над Новгородом вновь нависла угроза нападения, народ собирается и просит Василия встать на защиту родимой земли.


Дополнительная информация:
Рип сделан с DVD9 лицензионного диска, кому нужно - пишите выложу его.


Рейтинг на:


Релиз группы:


Видео: 1024x576 (16:9), 25.00fps, MPEG4 Video (H264), ~ 1850 kbps, 0.125 bit*pixel
Аудио:
1. 48000Hz stereo, Dolby AC3, 6 ch, 448 kbps (Русский) [По умолчанию]
2. 48000Hz stereo, Dolby AC3, 6 ch, 448 kbps (Английский)
3. 48000Hz stereo, Dolby AC3, 6 ch, 448 kbps (Французский)
4. 48000Hz stereo, Dolby AC3, 6 ch, 448 kbps (Болгарский)


MediaInfo: General
Complete name: C:\Закачки\Фильмы\Vasiliy_Buslaev_[tfile.ru].mp4
Format: Matroska
File size: 1.96 GiB
Duration: 1h 16mn
Overall bit rate: 3 665 Kbps
Encoded date: UTC 2010-12-23 21:10:50
Writing application: mkvmerge v2.4.0 ('Fumbling Towards Ecstasy') built on Oct 11 2008 20:13:15
Writing library: libebml v0.7.7 + libmatroska v0.8.1

Video
ID: 1
Format: AVC
Format/Info: Advanced Video Codec
Format profile:
Format settings, CABAC: Yes
Format settings, ReFrames: 10 frames
Muxing mode: Container profile=Unknown@4.1
Codec ID: V_MPEG4/ISO/AVC
Duration: 1h 16mn
Bit rate: 1 850 Kbps
Width: 1 024 pixels
Height: 576 pixels
Display aspect ratio: 16:9
Frame rate: 25.000 fps
Color space: YUV
Chroma subsampling: 4:2:0
Bit depth: 8 bits
Scan type: Progressive
Bits/(Pixel*Frame): 0.125
Stream size: 985 MiB (49%)
Writing library: x264 core 65 r999kMod cc51047
Encoding settings: cabac=1 / ref=10 / deblock=1:-3:-3 / analyse=0x3:0x133 / me=umh / subme=9 / psy_rd=1.0:0.0 / mixed_ref=1 / me_range=32 / chroma_me=1 / trellis=2 / 8x8dct=1 / cqm=0 / deadzone=21,11 / chroma_qp_offset=-2 / threads=4 / thread_queue=4 / nr=0 / decimate=1 / mbaff=0 / bframes=6 / b_pyramid=1 / b_adapt=1 / b_bias=0 / direct=3 / wpredb=1 / keyint=250 / keyint_min=25 / scenecut=40(pre) / rc=2pass / bitrate=1850 / ratetol=1.0 / qcomp=0.60 / qpmin=16 / qpmax=51 / qpstep=4 / cplxblur=20.0 / qblur=0.5 / ip_ratio=1.40 / pb_ratio=1.30 / aq=1:1.00
Language: Russian

Audio #1
ID: 2
Format: AC-3
Format/Info: Audio Coding 3
Mode extension: CM (complete main)
Codec ID: A_AC3
Duration: 1h 16mn
Bit rate mode: Constant
Bit rate: 448 Kbps
Channel(s): 6 channels
Channel positions: Front: L C R, Side: L R, LFE
Sampling rate: 48.0 KHz
Video delay: 600ms
Stream size: 245 MiB (12%)
Title: Русский
Language: Russian

Audio #2
ID: 3
Format: AC-3
Format/Info: Audio Coding 3
Mode extension: CM (complete main)
Codec ID: A_AC3
Duration: 1h 16mn
Bit rate mode: Constant
Bit rate: 448 Kbps
Channel(s): 6 channels
Channel positions: Front: L C R, Side: L R, LFE
Sampling rate: 48.0 KHz
Video delay: 600ms
Stream size: 245 MiB (12%)
Title: Английский
Language: English

Audio #3
ID: 4
Format: AC-3
Format/Info: Audio Coding 3
Mode extension: CM (complete main)
Codec ID: A_AC3
Duration: 1h 16mn
Bit rate mode: Constant
Bit rate: 448 Kbps
Channel(s): 6 channels
Channel positions: Front: L C R, Side: L R, LFE
Sampling rate: 48.0 KHz
Video delay: 600ms
Stream size: 245 MiB (12%)
Title: Французский
Language: French

Audio #4
ID: 5
Format: AC-3
Format/Info: Audio Coding 3
Mode extension: CM (complete main)
Codec ID: A_AC3
Duration: 1h 16mn
Bit rate mode: Constant
Bit rate: 448 Kbps
Channel(s): 6 channels
Channel positions: Front: L C R, Side: L R, LFE
Sampling rate: 48.0 KHz
Video delay: 600ms
Stream size: 245 MiB (12%)
Title: Болгарский
Language: Bulgarian

Text #1
ID: 6
Format: VobSub
Codec ID: S_VOBSUB
Codec ID/Info: The same subtitle format used on DVDs
Title: Русские
Language: Russian

Text #2
ID: 7
Format: VobSub
Codec ID: S_VOBSUB
Codec ID/Info: The same subtitle format used on DVDs
Title: Английские
Language: English

Text #3
ID: 8
Format: VobSub
Codec ID: S_VOBSUB
Codec ID/Info: The same subtitle format used on DVDs
Title: Французские
Language: French

Text #4
ID: 9
Format: VobSub
Codec ID: S_VOBSUB
Codec ID/Info: The same subtitle format used on DVDs
Title: Испанские
Language: Spanish

Text #5
ID: 10
Format: VobSub
Codec ID: S_VOBSUB
Codec ID/Info: The same subtitle format used on DVDs
Title: Итальянские
Language: Italian

Text #6
ID: 11
Format: VobSub
Codec ID: S_VOBSUB
Codec ID/Info: The same subtitle format used on DVDs
Title: Датские
Language: Dutch

Text #7
ID: 12
Format: VobSub
Codec ID: S_VOBSUB
Codec ID/Info: The same subtitle format used on DVDs
Title: Японские
Language: Japanese

Text #8
ID: 13
Format: VobSub
Codec ID: S_VOBSUB
Codec ID/Info: The same subtitle format used on DVDs
Title: Шведские
Language: Swedish

Text #9
ID: 14
Format: VobSub
Codec ID: S_VOBSUB
Codec ID/Info: The same subtitle format used on DVDs
Title: Германские
Language: German

Text #10
ID: 15
Format: VobSub
Codec ID: S_VOBSUB
Codec ID/Info: The same subtitle format used on DVDs
Title: Португальские
Language: Portuguese

Text #11
ID: 16
Format: VobSub
Codec ID: S_VOBSUB
Codec ID/Info: The same subtitle format used on DVDs
Title: Иврит
Language: Hebrew

Text #12
ID: 17
Format: VobSub
Codec ID: S_VOBSUB
Codec ID/Info: The same subtitle format used on DVDs
Title: Арабские
Language: Arabic

Text #13
ID: 18
Format: VobSub
Codec ID: S_VOBSUB
Codec ID/Info: The same subtitle format used on DVDs
Title: Китайские
Language: Chinese














реклама партнёра


Вернуться к началу
 Профиль Отправить личное сообщение  
 
   Похожие торренты   Автор   Торрент   Размер 
В этой теме нет новых непрочитанных сообщений. Фронт (Георгий Васильев, Сергей Васильев) [1943, драма, военный, DVDRip-AVC]

Nickolas3435

18 | 7

1.46 ГБ

В этой теме нет новых непрочитанных сообщений. Разрушение Трои и приключения Одиссея / Destruction of Troy and Adventures of Odysseus [мультфильм, приключения, исторический, 1998] DVDRip, Dub

salma3

13 | 3

1.46 ГБ

В этой теме нет новых непрочитанных сообщений. Вынужденная месть / Forced Vengeance [боевик, приключения, 1982] DVDRip, Mvo

salma3

10 | 2

1.37 ГБ

В этой теме нет новых непрочитанных сообщений. Меч варваров / Sangraal la spada di fuoco [фэнтези, боевик, приключения, 1982] DVDRip, Dvo

salma3

42 | 14

1.36 ГБ

В этой теме нет новых непрочитанных сообщений. Глаз хищника / Ornens Oje [Исторический, приключения, семейный, 1997] DVDRip, Mvo

salma3

224 | 22

1.62 ГБ

В этой теме нет новых непрочитанных сообщений. Кабеса де Вака / Cabeza de Vaca [драма, приключения, исторический, 1991] DVDRip, Avo+Sub

salma3

20 | 3

1.32 ГБ

В этой теме нет новых непрочитанных сообщений. Самсон против пиратов / Sansone contro i pirati [приключения, исторический, 1963] DVDRip, Avo

salma3

45 | 7

1.46 ГБ


Начать новую тему Ответить на тему  [ 1 сообщение ] 




Для Мосгорсуда, Роскомнадзора и рекламодателей:: mosgorsud-torrent[собачка]yandex.ru