Торрент файл
скачать торрент магнет ссылка Добавлен: 08 апр 2011, 15:31
Размер: 587.64 МБ
Сидеров: 5
Личеров: 8
Автор

СообщениеДобавлено: 08 апр 2011, 15:31 

Не в сети
Супермодератор
Аватара пользователя
Дата регистрации:
22 май 2010, 11:03
Возраст: 32
Спасибо: 7690 / 13
Сообщения: 49871
Жених с того света


Формат: SATRip, MP4, H.264 (AVC), MP3

Режиссер: Леонид Гайдай

Жанр: комедия

Продолжительность: 00:47:34

Год выпуска: 1958

В ролях: Ростислав Плятт, Георгий Вицин, Вера Алтайская, Рина Зелёная, Анастасия Зуева, Мария Кравчуновская, Владимир Владиславский, Зоя Фёдорова, Кларина Фролова, Т. Тарасов, Татьяна Гурецкая, Лидия Драновская, Клара Румянова, В. Новосельский, Александра Данилова, А. Строев, Римма Шорохова.

Описание:
«Глава учреждения КУКУ (Кустовое управление курортными учреждениями) виртуоз-бюрократ Петухов попадает в щекотливое положение: вернувшись после трёхдневного отсутствия от невесты, он обнаруживает, что его по недоразумению… похоронили, к тому же как покойника на совершенно законных основаниях уволили с работы, и теперь по всем документам он уже не числится среди живых. „Ожить“ в бюрократической системе оказалось весьма непросто…»

Это второй фильм Л. Гайдая (первым был «Долгий путь», 1956), оказавшийся самым многострадальным. После вырезания всех не устроивших кинематографическое начальство сцен от полнометражной картины осталась половина. Но этим дело не ограничилось: несмотря на благосклонность к нему директора «Мосфильма» И. Пырьева, Гайдай оказался отлучённым от режиссёрской работы. Лишь после того, как в 1960 г. его уговорили снять идеологически выдержанный фильм «Трижды воскресший» (о котором он сам позже никогда нигде не упоминал), его «простили». А дальше была короткометражка 1961 года «Пёс-барбос и необычный кросс», триумфально прошедшая буквально по всему миру, и все остальные фильмы, которые многие знают чуть ли не наизусть.


Дополнительная информация:
В основу исходника был положен очень качественный SATRip с телеканала "Звезда".


Рейтинг на:


Релиз группы:


Видео: 768x576 (4:3), 25.00fps, MPEG4 Video (H264), ~ 1500 kbps, 0.136 bit*pixel
Аудио: 48000Hz stereo, MPEG Audio, 2 ch, 224 kbps


MediaInfo: General
Complete name: C:\Закачки\Фильмы\Jenih_s_togo_sveta_[tfile.ru].mp4
Format: Matroska
File size: 588 MiB
Duration: 47mn 34s
Overall bit rate: 1 727 Kbps
Encoded date: UTC 2010-12-07 15:26:00
Writing application: mkvmerge v2.4.0 ('Fumbling Towards Ecstasy') built on Oct 11 2008 20:13:15
Writing library: libebml v0.7.7 + libmatroska v0.8.1

Video
ID: 1
Format: AVC
Format/Info: Advanced Video Codec
Format profile:
Format settings, CABAC: Yes
Format settings, ReFrames: 10 frames
Muxing mode: Container profile=Unknown@4.1
Codec ID: V_MPEG4/ISO/AVC
Duration: 47mn 34s
Bit rate: 1 500 Kbps
Width: 768 pixels
Height: 576 pixels
Display aspect ratio: 4:3
Frame rate: 25.000 fps
Color space: YUV
Chroma subsampling: 4:2:0
Bit depth: 8 bits
Scan type: Progressive
Bits/(Pixel*Frame): 0.136
Stream size: 500 MiB (85%)
Writing library: x264 core 65 r999kMod cc51047
Encoding settings: cabac=1 / ref=10 / deblock=1:-3:-3 / analyse=0x3:0x133 / me=umh / subme=9 / psy_rd=1.0:0.0 / mixed_ref=1 / me_range=32 / chroma_me=1 / trellis=2 / 8x8dct=1 / cqm=0 / deadzone=21,11 / chroma_qp_offset=-2 / threads=4 / thread_queue=4 / nr=0 / decimate=1 / mbaff=0 / bframes=6 / b_pyramid=1 / b_adapt=1 / b_bias=0 / direct=3 / wpredb=1 / keyint=250 / keyint_min=25 / scenecut=40(pre) / rc=2pass / bitrate=1500 / ratetol=1.0 / qcomp=0.60 / qpmin=16 / qpmax=51 / qpstep=4 / cplxblur=20.0 / qblur=0.5 / ip_ratio=1.40 / pb_ratio=1.30 / aq=1:1.00

Audio
ID: 2
Format: MPEG Audio
Format version: Version 1
Format profile: Layer 2
Codec ID: A_MPEG/L2
Codec ID/Hint: MP2
Duration: 47mn 34s
Bit rate mode: Constant
Bit rate: 224 Kbps
Channel(s): 2 channels
Sampling rate: 48.0 KHz
Stream size: 76.2 MiB (13%)
Language: Russian














реклама партнёра


Вернуться к началу
 Профиль Отправить личное сообщение  
 
   Похожие торренты   Автор   Торрент   Размер 
В этой теме нет новых непрочитанных сообщений. Операция «Ы» и другие приключения Шурика (Леонид Гайдай) [Эксцентрическая комедия, мелодрама, криминал, 1965] BDRip 1080p

Dracon

1 | 0

7.16 ГБ

В этой теме нет новых непрочитанных сообщений. Пропавший жених [Серии 1-4 из 4] (Сергей Кешишев) [Криминал, Мелодрама, 2015] SATRip

Dracon

18 | 7

2.48 ГБ

В этой теме нет новых непрочитанных сообщений. Сбежавший жених / Дон Пейот / Don Peyote (Михаэль Кансонейро, Дэн Фоглер) [2014, Драма, комедия, WEB-DLRip] mvo

Nickolas3435

91 | 4

1.45 ГБ

В этой теме нет новых непрочитанных сообщений. Харчевня в Шпессарте / Das Wirtshaus im Spessart [мюзикл, комедия, приключения, 1958] BDRip, Mvo

salma3

58 | 17

1.45 ГБ

В этой теме нет новых непрочитанных сообщений. Конец света инкорпорейтед / End of Days, Inc. (фантастика, комедия, 2015) HDRip | L1

marya111

154 | 2

1.34 ГБ

В этой теме нет новых непрочитанных сообщений. Конец света инкорпорейтед / End of Days, Inc. [фантастика, комедия, 2016] HDRip, Avo

salma3

86 | 8

1.57 ГБ

В этой теме нет новых непрочитанных сообщений. Жених / Man of Her Dreams [триллер, драма, 1997] DVDRip, Avo

salma3

79 | 5

1.5 ГБ


Начать новую тему Ответить на тему  [ 1 сообщение ] 




Для Мосгорсуда, Роскомнадзора и рекламодателей:: mosgorsud-torrent[собачка]yandex.ru