Торрент файл
скачать торрент магнет ссылка Добавлен: 05 июл 2013, 21:50
Размер: 1.46 ГБ
Сидеров: 26
Личеров: 4
Автор

СообщениеДобавлено: 05 июл 2013, 21:50 

Не в сети
Супермодератор
Аватара пользователя
Дата регистрации:
15 фев 2012, 16:44
Возраст: 27
Спасибо: 5700 / 2109
Сообщения: 24773
Страна: СССР
Студия: Мосфильм
Жанр: приключения, история
Год выпуска: 1988
Продолжительность: 01:31:15

Перевод: не требуется
Оригинальная аудиодорожка: русский
Cубтитры: нет

Режиссер: Сергей Тарасов

В ролях: Ольга Кабо, Александр Кознов, Александр Лазарев, Александр Яковлев, Александр Пашутин, Юрий Кузнецов, Леонид Кулагин, Борис Хмельницкий, Паул Буткевич, Борис Химичев...

Описание: По мотивам романа В. Скотта «Квентин Дорвард». Франция, XV век. Молодой шотландец, стремящийся достойно приложить свои силы, обласкан королем и принят в гвардию. Вскоре король поручает ему трудную миссию — однако дело оборачивается коварным обманом. Спасая возлюбленную, стрелок гвардии проявляет чудеса мужества и благородства…





Качество: DVDRip (DVD5 R5)
Формат: AVI
Видео: 704x432 (16:10), 24.000 fps, XviD ~ 2180 kbps avg, 0.287 bit/pixel
Аудио: 48 kHz, МР3 1 ch, 96 kbps, русский

Раздача от:
Общее
Полное имя : Priklyucheniya.Kventina.Dorvarda.1988.O.DVDRip_[Youtraker]_by_avproh.avi
Формат : AVI
Формат/Информация : Audio Video Interleave
Размер файла : 1,46 Гбайт
Продолжительность : 1 ч. 31 м.
Общий поток : 2286 Кбит/сек
Программа кодирования : VirtualDubModRus 1.5.10.2 (build 2542/release)
Библиотека кодирования : VirtualDubMod build 2542/release

Видео
Идентификатор : 0
Формат : MPEG-4 Visual
Профиль формата : Advanced Simple@L5
Параметр BVOP формата : 1
Параметр QPel формата : Нет
Параметр GMC формата : Без точки перехода
Параметр матрицы формата : Выборочная
Идентификатор кодека : XVID
Идентификатор кодека/Подсказка : XviD
Продолжительность : 1 ч. 31 м.
Битрейт : 2180 Кбит/сек
Ширина : 704 пикселя
Высота : 432 пикселя
Соотношение сторон : 16:10
Частота кадров : 25,000 кадров/сек
Цветовое пространство : YUV
Субдискретизация насыщенности : 4:2:0
Битовая глубина : 8 бит
Тип развёртки : Прогрессивная
Метод сжатия : С потерями
Бит/(Пиксели*Кадры) : 0.287
Размер потока : 1,39 Гбайт (95%)
Библиотека кодирования : XviD 65

Аудио
Идентификатор : 1
Формат : MPEG Audio
Версия формата : Version 1
Профиль формата : Layer 3
Идентификатор кодека : 55
Идентификатор кодека/Подсказка : MP3
Продолжительность : 1 ч. 31 м.
Вид битрейта : Постоянный
Битрейт : 96,0 Кбит/сек
Каналы : 1 канал
Частота : 48,0 КГц
Метод сжатия : С потерями
Размер потока : 62,7 Мбайт (4%)
Выравнивание : Соединение по промежуткам
Продолжительность промежутка : 40 мс. (1,00 видеокадр)
Время предзагрузки промежутка : 504 мс.






реклама партнёра


Вернуться к началу
 Профиль Отправить личное сообщение  
 
   Похожие торренты   Автор   Торрент   Размер 
В этой теме нет новых непрочитанных сообщений. Белка и Стрелка: Лунные приключения [мультфильм, комедия, приключения, семейный, 2013] HDRip [Лицензия]

Dracon

351 | 9

1.37 ГБ

В этой теме нет новых непрочитанных сообщений. Белка и Стрелка: Лунные приключения [мультфильм, комедия, приключения, семейный, 2013] DVD5 [Лицензия]

Dracon

30 | 9

4.34 ГБ

В этой теме нет новых непрочитанных сообщений. Белка и Стрелка: Лунные приключения [мультфильм, комедия, приключения, семейный, 2013] BDRip 1080p | [Лицензия]

Dracon

64 | 4

3.88 ГБ

В этой теме нет новых непрочитанных сообщений. Белка и Стрелка: Лунные приключения [мультфильм, комедия, приключения, семейный, 2013] BDRip 720p | [Лицензия]

Dracon

430 | 13

2.91 ГБ

В этой теме нет новых непрочитанных сообщений. Приключения молодого Индианы Джонса / The Young Indiana Jones Chronicles [S01-03] [приключения, история, 1992-1996] DVDRip, Avo

salma3

38 | 14

32.84 ГБ

В этой теме нет новых непрочитанных сообщений. Инопланетянка из Лос-Анджелеса / Alien from L.A. [фантастика, комедия, приключения, 1988] DVDRip-AVC, Avo

salma3

168 | 33

2.1 ГБ

В этой теме нет новых непрочитанных сообщений. Инопланетянка из Лос-Анджелеса / Alien from L.A. [фантастика, комедия, приключения, 1988] DVDRip, Avo

salma3

175 | 30

1.45 ГБ


Начать новую тему Ответить на тему  [ 1 сообщение ] 




Для Мосгорсуда, Роскомнадзора и рекламодателей:: mosgorsud-torrent[собачка]yandex.ru