Торрент файл
скачать торрент магнет ссылка Добавлен: 24 июн 2013, 21:10
Размер: 1.46 ГБ
Сидеров: 9
Личеров: 2
Автор

СообщениеДобавлено: 24 июн 2013, 21:10 

В сети
Супермодератор
Аватара пользователя
Дата регистрации:
15 фев 2012, 16:44
Возраст: 27
Спасибо: 5143 / 2090
Сообщения: 17495
Страна: СССР
Производство: Мосфильм
Жанр: криминал
Год выпуска: 1972
Продолжительность: 01:24:09

Перевод: не требуется
Оригинальная аудиодорожка: русский
Cубтитры: нет

Режиссер: Владимир Назаров

В ролях:
Валерий Золотухин, Максим Мунзук, Марта Зориктуева, Артем Иноземцев, Людмила Максакова, Буда Вампилов, Николай Крюков, Алла Мещерякова...

Описание:
Служба Сережкина в новом районе началась в обстоятельствах исключительных и драматических. На каменном берегу Лысой Косы убит ученый-зоолог, занимавшийся изучением парнокопытных. На месте преступления одна улика — след ноги 37 размера. Возможно, в деле замешана женщина…





Исходник: DVB
Тип релиза: SATRip
Контейнер: AVI

Видео: 688x400 (16:9), 25 fps, XviD ~ 2276 kbps avg, 0.331 bit/pixel
Аудио: 48 kHz, Dolby AC3 2.0, 192 kbps

Раздача от:
Общее
Полное имя : Propazha.svidetelja.1972.SATRip_[Youtracker]_by_AVP Studio.avi
Формат : AVI
Формат/Информация : Audio Video Interleave
Размер файла : 1,46 Гбайт
Продолжительность : 1 ч. 24 м.
Общий поток : 2478 Кбит/сек
Программа кодирования : VirtualDubModRus 1.5.10.2 (build 2542/release)
Библиотека кодирования : VirtualDubMod build 2542/release

Видео
Идентификатор : 0
Формат : MPEG-4 Visual
Профиль формата : Advanced Simple@L5
Параметр BVOP формата : 1
Параметр QPel формата : Нет
Параметр GMC формата : Без точки перехода
Параметр матрицы формата : Выборочная
Идентификатор кодека : XVID
Идентификатор кодека/Подсказка : XviD
Продолжительность : 1 ч. 24 м.
Битрейт : 2276 Кбит/сек
Ширина : 688 пикселей
Высота : 400 пикселей
Соотношение сторон : 16:9
Частота кадров : 25,000 кадров/сек
Цветовое пространство : YUV
Субдискретизация насыщенности : 4:2:0
Битовая глубина : 8 бит
Тип развёртки : Прогрессивная
Метод сжатия : С потерями
Бит/(Пиксели*Кадры) : 0.331
Размер потока : 1,34 Гбайт (92%)
Библиотека кодирования : XviD 65

Аудио
Идентификатор : 1
Формат : MPEG Audio
Версия формата : Version 1
Профиль формата : Layer 2
Идентификатор кодека : 50
Продолжительность : 1 ч. 24 м.
Вид битрейта : Постоянный
Битрейт : 192 Кбит/сек
Каналы : 2 канала
Частота : 48,0 КГц
Метод сжатия : С потерями
Размер потока : 116 Мбайт (8%)
Выравнивание : Соединение по промежуткам
Продолжительность промежутка : 40 мс. (1,00 видеокадр)
Время предзагрузки промежутка : 504 мс





реклама партнёра


Вернуться к началу
 Профиль Отправить личное сообщение  
 
   Похожие торренты   Автор   Торрент   Размер 
В этой теме нет новых непрочитанных сообщений. Смерть свадебного свидетеля / Best Man Down (Тед Коланд) [Драма, комедия, 2013] HDRip, avo

Dracon

261 | 37

1.36 ГБ

В этой теме нет новых непрочитанных сообщений. Смерть свадебного свидетеля / Best Man Down (Тед Коланд) [Драма, комедия, 2013] HDRip, Mvo

Dracon

486 | 11

1.36 ГБ

В этой теме нет новых непрочитанных сообщений. Смерть свадебного свидетеля / Best Man Down (Тед Коланд) [Комедия, драма, 2013] BDRip 720p, Mvo+Sub

Dracon

106 | 3

4.21 ГБ

В этой теме нет новых непрочитанных сообщений. Смерть свадебного свидетеля / Best Man Down (Тед Коланд) [Драма, комедия, 2013] BDRip 720p, avo+sub

Dracon

5 | 4

4.37 ГБ

В этой теме нет новых непрочитанных сообщений. Смерть свадебного свидетеля / Best Man Down (Тед Коланд / Ted Koland) [2012г., комедия, драма, HDRip] Sub

Alfredovich

12 | 6

697.83 МБ

В этой теме нет новых непрочитанных сообщений. Краденый камень / The Hot Rock [боевик, комедия, криминал, 1972] HDTVRip, Mvo

salma3

179 | 7

1.46 ГБ

В этой теме нет новых непрочитанных сообщений. На той стороне 110-й улицы / Across 110th Street [боевик, триллер, драма, криминал, 1972] DVDRip, Mvo [НТВ+]

salma3

11 | 3

1.37 ГБ


Начать новую тему Ответить на тему  [ 1 сообщение ] 




Для Мосгорсуда, Роскомнадзора и рекламодателей:: mosgorsud-torrent[собачка]yandex.ru