Торрент файл
скачать торрент магнет ссылка Добавлен: 30 май 2013, 15:31
Размер: 1.46 ГБ
Сидеров: 37
Личеров: 4
Автор

СообщениеДобавлено: 30 май 2013, 15:31 

В сети
Супермодератор
Аватара пользователя
Дата регистрации:
15 фев 2012, 16:44
Возраст: 28
Спасибо: 6577 / 2142
Сообщения: 43850
Павшим и живым воинам 3-й танковой
армии маршала Рыбалко посвящается



Страна: СССР
Производство: Ленфильм
Жанр: военный, история
Год выпуска: 1968
Продолжительность: 01:25:00

Перевод: не требуется
Оригинальная аудиодорожка: русский
Cубтитры: нет

Режиссер: Виктор Трегубович

В ролях:
Михаил Кононов, Олег Борисов, Виктор Павлов, Фёдор Одиноков, Борис Табаровский, Михаил Глузский, Петр Любешкин, Валентин Зубков, Борис Аракелов, Герман Колушкин, Пётр Горин, Борис Сичкин, Юрий Дубровин, Ирина Замотина, Дмитрий Махнич, Владимир Карпенко, Владимир Маляр...

Описание:
Идет Великая Отечественная война. Наши войска освобождают Украину, правый берег Днепра. Младший лейтенант Александр Малешкин, свежеиспеченный выпускник военного училища, до этого насидевшийся в резерве, принимает под своё командование экипаж "самоходки" СУ-100. Все подчиненные Малешкина старше его по возрасту и намного опытнее. Авторитет молодого командира на каждом шагу подвергается испытаниям. Кроме того, Малешкиным очень недоволен командир батареи, он то и дело грозится снять нерасторопного новичка с командования. В экипаже Сан Саныча и впрямь постоянно случаются разные неприятности: то в машине обнаружится боевая граната с выпавшей чекой, то случится неисправность как раз в момент выхода полка на марш...





Исходник: DVD5 R5
Тип релиза: DVDRip
Контейнер: AVI
Видео: 720x304 (2.35:1), 25 fps, XviD ~ 1999 kbps avg, 0.365 bit/pixel
Аудио: 48 kHz, Dolby AC3 5.1, 448 kbps

Раздача от:
Общее
Полное имя : Na.vojne.kak.na.vojne.1968.DVDRip_[Youtracker]_by_AVP Studio.avi
Формат : AVI
Формат/Информация : Audio Video Interleave
Размер файла : 1,46 Гбайт
Продолжительность : 1 ч. 25 м.
Общий поток : 2456 Кбит/сек
Программа кодирования : VirtualDubModRus 1.5.10.2 (build 2542/release)
Библиотека кодирования : VirtualDubMod build 2542/release

Видео
Идентификатор : 0
Формат : MPEG-4 Visual
Профиль формата : Advanced Simple@L5
Параметр BVOP формата : 1
Параметр QPel формата : Нет
Параметр GMC формата : Без точки перехода
Параметр матрицы формата : Выборочная
Идентификатор кодека : XVID
Идентификатор кодека/Подсказка : XviD
Продолжительность : 1 ч. 25 м.
Битрейт : 1999 Кбит/сек
Ширина : 720 пикселей
Высота : 304 пикселя
Соотношение сторон : 2,35:1
Частота кадров : 25,000 кадров/сек
Цветовое пространство : YUV
Субдискретизация насыщенности : 4:2:0
Битовая глубина : 8 бит
Тип развёртки : Прогрессивная
Метод сжатия : С потерями
Бит/(Пиксели*Кадры) : 0.365
Размер потока : 1,19 Гбайт (81%)
Библиотека кодирования : XviD 65

Аудио
Идентификатор : 1
Формат : AC-3
Формат/Информация : Audio Coding 3
Расширение режима : CM (complete main)
Идентификатор кодека : 2000
Продолжительность : 1 ч. 24 м.
Вид битрейта : Постоянный
Битрейт : 448 Кбит/сек
Каналы : 6 каналов
Расположение каналов : Front: L C R, Side: L R, LFE
Частота : 48,0 КГц
Битовая глубина : 16 бит
Метод сжатия : С потерями
Размер потока : 272 Мбайт (18%)
Выравнивание : Разделение по промежуткам
Продолжительность промежутка : 40 мс. (1,00 видеокадр)
Время предзагрузки промежутка : 500 мс





реклама партнёра


Вернуться к началу
 Профиль Отправить личное сообщение  
 
   Похожие торренты   Автор   Торрент   Размер 
В этой теме нет новых непрочитанных сообщений. NG. Америка в Великой войне 1917-1918 / America's Great War 1917-1918 [военный, история, 2017]HDTVRip, Dub

salma3

8 | 0

660.93 МБ

В этой теме нет новых непрочитанных сообщений. NG. Америка в Великой войне 1917-1918 / America's Great War 1917-1918 [военный, история, 2017] HDTVRip 720р, Dub

salma3

11 | 2

1.13 ГБ

В этой теме нет новых непрочитанных сообщений. Частные армии. Бизнес на войне (Россия) [Документальный, познавательный, 2014] HDTV 1080i

Dracon

2 | 2

2.1 ГБ

В этой теме нет новых непрочитанных сообщений. История Белль Старр / The Belle Starr Story [Вестерн, 1968] HDTVRip, Avo

salma3

48 | 16

1.33 ГБ

В этой теме нет новых непрочитанных сообщений. Дети войны / Children of War [драма, военный, история, 2014] DVDRip, DVO

salma3

53 | 10

1.37 ГБ

В этой теме нет новых непрочитанных сообщений. Трое суток после бессмертия [военный, история, 1963] DVDRip-AVC

salma3

16 | 6

1.09 ГБ

В этой теме нет новых непрочитанных сообщений. Балтийская слава [драма, история, военный, приключения, 1957] DVDRip-AVC

salma3

36 | 12

1.09 ГБ


Начать новую тему Ответить на тему  [ 1 сообщение ] 




Для Мосгорсуда, Роскомнадзора и рекламодателей:: mosgorsud-torrent[собачка]yandex.ru