Торрент файл
скачать торрент магнет ссылка Добавлен: 12 май 2013, 03:16
Размер: 744.96 МБ
Сидеров: 39
Личеров: 5
Автор

СообщениеДобавлено: 12 май 2013, 03:16 

Не в сети
Супермодератор
Аватара пользователя
Дата регистрации:
15 фев 2012, 16:44
Возраст: 28
Спасибо: 6594 / 2145
Сообщения: 44279
Страна: СССР
Производство: Ленфильм
Жанр:фэнтези, семейный
Год выпуска: 1968
Продолжительность: 01:31:27

Перевод: не требуется
Оригинальная аудиодорожка: русский
Cубтитры: нет

Режиссёр: Надежда Кошеверова

В ролях:
Олег Даль, Марина Неёлова, Георгий Вицин, Игорь Дмитриев, Вера Титова, Анатолий Абрамов, А. Аввакумов, Н. Белчивичин, М. Дмитриевский, Владимир Этуш...

Описание:
Главный герой фильма — сказочник, живущий в бедном и сером мире, и от него уходит жена. Он сочиняет сказку, в которой сам в образе храброго солдата находит огниво и ему помогает добрый волшебник.
Солдат полюбил избалованную, капризную принцессу, загадывающую, как и полагается принцессе, загадки многочисленным женихам. Ее отец, король, очень хочет видеть мужем солдата, так как думает, что у того очень много золота.
В сказке все кончается очень хорошо, а вот в жизни у сказочника все складывается плохо. «Но жизнь ведь не сказка» — говорит уходя жена…




Исходник: DVD9 R5
Тип релиза: DVDRip
Контейнер: AVI

Видео: 656x272 (2,40:1), 25 fps, XviD ~ 1001 kbps avg, 0.224 bit/pixel
Аудио: 48 kHz, MP3 2.0, 128 kbps

Раздача от:

Общее
Полное имя: Staraya,staraya.skazka.1968.DVDRip_[Youtracker]_by_AVP Studio.avi
Формат: AVI
Формат/Информация: Audio Video Interleave
Размер файла: 745 Мбайт
Продолжительность: 1 ч. 31 м.
Общий поток: 1139 Кбит/сек
Программа кодирования: VirtualDubModRus 1.5.10.2 (build 2542/release)
Библиотека кодирования: VirtualDubMod build 2542/release

Видео
Идентификатор: 0
Формат: MPEG-4 Visual
Профиль формата: Advanced Simple@L5
Параметр BVOP формата: 1
Параметр QPel формата: Нет
Параметр GMC формата: Без точки перехода
Параметр матрицы формата: Выборочная
Идентификатор кодека: XVID
Идентификатор кодека/Подсказка: XviD
Продолжительность: 1 ч. 31 м.
Битрейт: 1001 Кбит/сек
Ширина: 656 пикселей
Высота: 272 пикселя
Соотношение сторон: 2,40:1
Частота кадров: 25,000 кадров/сек
Цветовое пространство: YUV
Субдискретизация насыщенности: 4:2:0
Битовая глубина: 8 бит
Тип развёртки: Прогрессивная
Метод сжатия: С потерями
Бит/(Пиксели*Кадры): 0.224
Размер потока: 655 Мбайт (88%)
Библиотека кодирования: XviD 65

Аудио
Идентификатор: 1
Формат: MPEG Audio
Версия формата: Version 1
Профиль формата: Layer 3
Идентификатор кодека: 55
Идентификатор кодека/Подсказка: MP3
Продолжительность: 1 ч. 31 м.
Вид битрейта: Постоянный
Битрейт: 128 Кбит/сек
Каналы: 2 канала
Частота: 48,0 КГц
Метод сжатия: С потерями
Размер потока: 83,7 Мбайт (11%)
Выравнивание: Соединение по промежуткам
Продолжительность промежутка: 40мс. (1,00 видеокадр)
Время предзагрузки промежутка: 504мс.
Библиотека кодирования: L3.99r
Настройки программы: -m s -V 4 -q 2 -lowpass 17 -b 128







реклама партнёра


Вернуться к началу
 Профиль Отправить личное сообщение  
 
   Похожие торренты   Автор   Торрент   Размер 
В этой теме нет новых непрочитанных сообщений. Призрак Черной Бороды / Blackbeard's Ghost [фэнтези, комедия, семейный, 1968] HDRip, Mvo

salma3

21 | 4

1.45 ГБ

В этой теме нет новых непрочитанных сообщений. Маг / The Magus [драма, фэнтези, детектив, 1968] DVDRip-AVC, Mvo

salma3

14 | 2

1.45 ГБ

В этой теме нет новых непрочитанных сообщений. Твои, мои и наши / Yours, Mine and Ours [комедия, семейный, 1968] HDRip, Mvo

salma3

28 | 10

1.45 ГБ

В этой теме нет новых непрочитанных сообщений. Твои, мои и наши / Yours, Mine and Ours [комедия, семейный, 1968] BDRip 720p, Dvo

salma3

32 | 2

4.76 ГБ

В этой теме нет новых непрочитанных сообщений. Оливер! / Oliver! [мюзикл, драма, криминал, семейный, 1968] HDTV 1080i, Mvo+Sub

salma3

34 | 30

12.77 ГБ

В этой теме нет новых непрочитанных сообщений. Астронавт поневоле / The Reluctant Astronaut [комедия, семейный, фантастика, 1968] WEB-DL 1080p, Avo

salma3

26 | 15

9.55 ГБ

В этой теме нет новых непрочитанных сообщений. Маг / The Magus [фэнтези, драма, детектив, 1968] HDRip, Mvo

salma3

162 | 29

1.45 ГБ


Начать новую тему Ответить на тему  [ 1 сообщение ] 




Для Мосгорсуда, Роскомнадзора и рекламодателей:: mosgorsud-torrent[собачка]yandex.ru