Торрент файл
скачать торрент магнет ссылка Добавлен: 08 май 2013, 19:37
Размер: 745.17 МБ
Сидеров: 7
Личеров: 3
Автор

СообщениеДобавлено: 08 май 2013, 19:37 

Не в сети
Супермодератор
Аватара пользователя
Дата регистрации:
15 фев 2012, 16:44
Возраст: 28
Спасибо: 6578 / 2143
Сообщения: 43974

Страна: СССР
Жанр: драма, военный
Год выпуска: 1984
Продолжительность: 01:22:19

Перевод: Не требуется
Cубтитры: нет

Режиссер: Вадим Лысенко
В ролях: Юрий Мысенков, Юрий Орлов, Александр Кайдановский, Екатерина Крупенникова, Виктор Маляревич, Сергей Мартынов, Улдис Лиелдидж, Игорь Комаров

Описание:
Шли последние дни июня 1942 года. Фашистские войска рвались к Севастополю, бои шли уже в самом городе. Корабли Черноморского флота уже не раз прорывались в Севастополь, доставляя пополнение, боеприпасы и оружие. И вот, эсминцы «Дерзкий» и «Стремительный» получают новый приказ отправиться в Севастополь.

Этот путь известен морякам достаточно хорошо, но фашисты неоднократно минировали единственный фарватер к Севастополю, а вражеские самолеты постоянно атакуют эсминцы. Ценой потери «Дерзкого» морякам удается прорваться в Севастополь. Но самые тяжелые испытания выпадают морякам на обратном пути, когда перегруженный ранеными «Стремительный» возвращается в родной порт.

Сэмпл

Качество видео: DVDRip [Исходник DVD5]
Формат видео: avi
Видео: 640x352 (1.82:1), 25 fps, XviD build 73 ~1127 kbps avg, 0.20 bit/pixel
Аудио: 48 kHz, MPEG Layer 3, 2 ch, ~128.00 kbps avg



General
Complete name: D:Sleduju_Svoim_Kursom_a_DVDRip_1974.[Youtracker].by.Дядя_Лёша.avi
Format: AVI
Format/Info: Audio Video Interleave
File size: 745 MiB
Duration: 1h 22mn
Overall bit rate: 1 266 Kbps
Movie name: Sleduju_Svoim_Kursom_a_DVDRip_1974.[Youtracker].by.Дядя_Лёша
Writing application: VirtualDubMod 1.5.10.3 | http://www.virtualdub-fr.org || (build 2550/release)
Copyright: Youtracker

Video
ID: 0
Format: MPEG-4 Visual
Format profile: Advanced Simple@L5
Format settings, BVOP: 2
Format settings, QPel: No
Format settings, GMC: No warppoints
Format settings, Matrix: Custom
Codec ID: XVID
Codec ID/Hint: XviD
Duration: 1h 22mn
Bit rate: 1 128 Kbps
Width: 640 pixels
Height: 352 pixels
Display aspect ratio: 16:9
Frame rate: 25.000 fps
Color space: YUV
Chroma subsampling: 4:2:0
Bit depth: 8 bits
Scan type: Progressive
Compression mode: Lossy
Bits/(Pixel*Frame): 0.200
Stream size: 664 MiB (89%)
Writing library: XviD 73

Audio
ID: 1
Format: MPEG Audio
Format version: Version 1
Format profile: Layer 3
Codec ID: 55
Codec ID/Hint: MP3
Duration: 1h 22mn
Bit rate mode: Constant
Bit rate: 128 Kbps
Channel(s): 2 channels
Sampling rate: 48.0 KHz
Compression mode: Lossy
Stream size: 75.3 MiB (10%)
Alignment: Aligned on interleaves
Interleave, duration: 40 ms (1.00 video frame)
Interleave, preload duration: 504 ms
Writing library: LAME3.99r
Encoding settings: -m s -V 4 -q 2 -lowpass 17 -b 128





Раздача от:




реклама партнёра


Вернуться к началу
 Профиль Отправить личное сообщение  
 
   Похожие торренты   Автор   Торрент   Размер 
В этой теме нет новых непрочитанных сообщений. Волоколамское шоссе (2 части из 2) [драма, военный, 1984] DVDRip

salma3

53 | 14

965.67 МБ

В этой теме нет новых непрочитанных сообщений. Птаха / Birdy [драма, военный, 1984] WEB-DL 1080p, Mvo

salma3

14 | 2

12.26 ГБ

В этой теме нет новых непрочитанных сообщений. Без вести пропавшие / Missing in Action [боевик, триллер, драма, приключения, военный, 1984] BDRip 720p, Mvo+Avo+Sub

salma3

10 | 5

6.18 ГБ

В этой теме нет новых непрочитанных сообщений. Fill Me With Your Orgasm 6 / Наполни Меня Своим Оргазмом 6 (Brother Love, Pure Passion) [2017 г., Couples, Cream Pie, Cumshots, Gonzo, Cunnilingus, All Sex, Oral, DVDRip]

max77777

11 | 14

1020.4 МБ

В этой теме нет новых непрочитанных сообщений. Класс 1984 / Class of 1984 [боевик, триллер, драма, 1982] BDRip-AVC, Avo

salma3

5 | 6

2.18 ГБ

В этой теме нет новых непрочитанных сообщений. Класс 1984 / Class of 1984 [боевик, триллер, драма, 1982] BDRip, Avo

salma3

27 | 4

1.45 ГБ

В этой теме нет новых непрочитанных сообщений. Класс 1984 / Class of 1984 [боевик, триллер, драма, 1982] HDRip, Avo

salma3

30 | 8

745.19 МБ


Начать новую тему Ответить на тему  [ 1 сообщение ] 




Для Мосгорсуда, Роскомнадзора и рекламодателей:: mosgorsud-torrent[собачка]yandex.ru