Торрент файл
скачать торрент магнет ссылка Добавлен: 08 май 2013, 19:35
Размер: 742.98 МБ
Сидеров: 16
Личеров: 4
Автор

СообщениеДобавлено: 08 май 2013, 19:35 

Не в сети
Супермодератор
Аватара пользователя
Дата регистрации:
15 фев 2012, 16:44
Возраст: 27
Спасибо: 5121 / 2089
Сообщения: 17282

Страна: СССР
Жанр: драма, военный
Год выпуска: 1984
Продолжительность: 01:21:25

Перевод: Не требуется
Cубтитры: нет

Режиссер: Тимур Золоев
В ролях: Ремигиус Сабулис, Мартиньш Вилсонс, Алексей Булдаков, Виктор Евграфов, Роланд Загорскис, Мухтарбек Кантемиров, Ирина Мельник

Описание:
1944 год. Карпаты. Советским разведчикам поручено обнаружить и уничтожить стратегически важный объект врага — склад урановой руды, закодированный гитлеровцами под названием «Рай».

Он тщательно охраняется войсками специального назначения, подразделениями эсэсовцев, альпийскими стрелками… Три группы советских разведчиков не вернулись с задания. Теперь предстоит отправиться четвертой — под командованием капитана Долгинцева…


Сэмпл

Качество видео: DVDRip [Исходник DVD5]
Формат видео: avi
Видео: 624x480 (1.30:1), 25 fps, XviD build 73 ~1137 kbps avg, 0.15 bit/pixel
Аудио: 48 kHz, MPEG Layer 3, 2 ch, ~128.00 kbps avg



General
Complete name: D:V_Dvuh_Shagah_Ot_Raja_DVDRip_1984.[Youtracker].by.Дядя_Лёша.avi
Format: AVI
Format/Info: Audio Video Interleave
File size: 743 MiB
Duration: 1h 21mn
Overall bit rate: 1 276 Kbps
Movie name: V_Dvuh_Shagah_Ot_Raja_DVDRip_1984.[Youtracker].by.Дядя_Лёша
Writing application: VirtualDubMod 1.5.10.3 | http://www.virtualdub-fr.org || (build 2550/release)
Copyright: Youtracker

Video
ID: 0
Format: MPEG-4 Visual
Format profile: Advanced Simple@L5
Format settings, BVOP: 2
Format settings, QPel: No
Format settings, GMC: No warppoints
Format settings, Matrix: Custom
Codec ID: XVID
Codec ID/Hint: XviD
Duration: 1h 21mn
Bit rate: 1 138 Kbps
Width: 624 pixels
Height: 480 pixels
Display aspect ratio: 4:3
Frame rate: 25.000 fps
Color space: YUV
Chroma subsampling: 4:2:0
Bit depth: 8 bits
Scan type: Progressive
Compression mode: Lossy
Bits/(Pixel*Frame): 0.152
Stream size: 663 MiB (89%)
Writing library: XviD 73

Audio
ID: 1
Format: MPEG Audio
Format version: Version 1
Format profile: Layer 3
Codec ID: 55
Codec ID/Hint: MP3
Duration: 1h 21mn
Bit rate mode: Constant
Bit rate: 128 Kbps
Channel(s): 2 channels
Sampling rate: 48.0 KHz
Compression mode: Lossy
Stream size: 74.5 MiB (10%)
Alignment: Aligned on interleaves
Interleave, duration: 40 ms (1.00 video frame)
Interleave, preload duration: 504 ms
Writing library: LAME3.99r
Encoding settings: -m s -V 4 -q 2 -lowpass 17 -b 128





Раздача от:




реклама партнёра


Вернуться к началу
 Профиль Отправить личное сообщение  
 
   Похожие торренты   Автор   Торрент   Размер 
В этой теме нет новых непрочитанных сообщений. Класс 1984 / Class of 1984 [триллер, драма, криминал, 1982] DVDRip, Avo

salma3

78 | 8

1.37 ГБ

В этой теме нет новых непрочитанных сообщений. Армейская история / A Soldier's Story [драма, криминал, детектив, военный, 1984] BDRip 720p, Mvo+Sub

salma3

30 | 3

5.13 ГБ

В этой теме нет новых непрочитанных сообщений. Армейская история / A Soldier's Story [драма, криминал, детектив, военный, 1984] BDRip 1080p, Mvo+Sub

salma3

6 | 3

11.97 ГБ

В этой теме нет новых непрочитанных сообщений. Без вести пропавшие 2: Начало / Missing in Action 2: The Beginning [Боевик, Триллер, Драма, Военный, 1984] BDRip, Mvo

salma3

0 | 2

1.45 ГБ

В этой теме нет новых непрочитанных сообщений. Без вести пропавшие / Missing in Action [боевик, триллер, драма, приключения, военный, 1984] BDRip 720p, Mvo+Avo+Sub

salma3

10 | 5

6.18 ГБ

В этой теме нет новых непрочитанных сообщений. Слияние двух лун 2: Возвращение / Return to Two Moon Junction [драма, мелодрама, 1995] DVDRip, Mvo

salma3

80 | 4

1.42 ГБ

В этой теме нет новых непрочитанных сообщений. Класс 1984 / Class of 1984 [боевик, триллер, драма, криминал, 1982] BDRemux 1080p, Avo+Sub

salma3

10 | 2

28.28 ГБ


Начать новую тему Ответить на тему  [ 1 сообщение ] 




Для Мосгорсуда, Роскомнадзора и рекламодателей:: mosgorsud-torrent[собачка]yandex.ru