Торрент файл
скачать торрент магнет ссылка Добавлен: 04 май 2013, 14:46
Размер: 1.46 ГБ
Сидеров: 41
Личеров: 5
Автор

СообщениеДобавлено: 04 май 2013, 14:46 

Не в сети
Супермодератор
Аватара пользователя
Дата регистрации:
15 фев 2012, 16:44
Возраст: 27
Спасибо: 5130 / 2089
Сообщения: 17350
Страна: СССР
Производство: Студия Горького
Жанр:военный
Год выпуска: 1983
Продолжительность: 01:21:41

Перевод: не требуется
Оригинальная аудиодорожка: русский
Cубтитры: нет

Режиссер:Георгий Николаенко
В ролях:
Л.Савельева, Н.Олялин, А.Збруев, Н.Ерёменко (мл.), А.Денисов, Т.Спивак, В.Баранов, Л.Дуров, В.Смирнов...

Описание:
1944 год. На одном из участков фронта советское командование готовит крупное наступление. Войска должны пройти через лесной массив, охраняемый фашистами. Для выяснений целей вражеских формирований в этот район направляется группа советских разведчиков, которую возглавляет капитан Надежда Мороз…




Исходник: DVD5 R5
Тип релиза: DVDRip
Контейнер: AVI
Видео: 688x416 (1,654:1), 25 fps, XviD ~ 2221 kbps avg, 0.310 bit/pixel
Аудио: 48 kHz, Dolby AC3 2.0, 256 kbps

Раздача от:

Общее
Полное имя: Shel.chetvertyy.god.voyny.1983.DVDRip_[Youtracker]_by_AVP Studio.avi
Формат: AVI
Формат/Информация: Audio Video Interleave
Размер файла: 1,46 Гбайт
Продолжительность: 1 ч. 23 м.
Общий поток: 2484 Кбит/сек
Программа кодирования: VirtualDubModRus 1.5.10.2 (build 2542/release)
Библиотека кодирования: VirtualDubMod build 2542/release

Видео
Идентификатор: 0
Формат: MPEG-4 Visual
Профиль формата: Advanced Simple@L5
Параметр BVOP формата: 1
Параметр QPel формата: Нет
Параметр GMC формата: Без точки перехода
Параметр матрицы формата: Выборочная
Идентификатор кодека: XVID
Идентификатор кодека/Подсказка: XviD
Продолжительность: 1 ч. 23 м.
Битрейт: 2219 Кбит/сек
Ширина: 688 пикселей
Высота: 416 пикселей
Соотношение сторон: 1,654
Частота кадров: 25,000 кадров/сек
Цветовое пространство: YUV
Субдискретизация насыщенности: 4:2:0
Битовая глубина: 8 бит
Тип развёртки: Прогрессивная
Метод сжатия: С потерями
Бит/(Пиксели*Кадры): 0.310
Размер потока: 1,30 Гбайт (89%)
Библиотека кодирования: XviD 65

Аудио
Идентификатор: 1
Формат: AC-3
Формат/Информация: Audio Coding 3
Расширение режима: CM (complete main)
Идентификатор кодека: 2000
Продолжительность: 1 ч. 23 м.
Вид битрейта: Постоянный
Битрейт: 256 Кбит/сек
Каналы: 2 канала
Расположение каналов: Front: L R
Частота: 48,0 КГц
Битовая глубина: 16 бит
Метод сжатия: С потерями
Размер потока: 154 Мбайт (10%)
Выравнивание: Разделение по промежуткам
Продолжительность промежутка: 40мс. (1,00 видеокадр)
Время предзагрузки промежутка: 500мс







реклама партнёра


Вернуться к началу
 Профиль Отправить личное сообщение  
 
   Похожие торренты   Автор   Торрент   Размер 
В этой теме нет новых непрочитанных сообщений. Дети войны / Children of War [драма, военный, история, 2014] DVDRip, DVO

salma3

53 | 10

1.37 ГБ

В этой теме нет новых непрочитанных сообщений. Хроники вьетнамской войны / 84C MoPic [Драма, военный, 1989] DVDRip, Mvo

salma3

39 | 3

1.45 ГБ

В этой теме нет новых непрочитанных сообщений. Диверсант 2: Конец войны / Серии: 1-10 из 10 (Игорь Зайцев) [2007, Военный боевик, DVDRip - AVC]

marya111

6 | 5

6.84 ГБ

В этой теме нет новых непрочитанных сообщений. Демоны войны / Demony wojny wedlug Goi [боевик, драма, военный, 1998] DVDRip, Mvo

salma3

27 | 9

1.99 ГБ

В этой теме нет новых непрочитанных сообщений. Сучьи войны [01-08 из 08] [Военный, драма, исторический, 2014] SATRip

Dracon

2715 | 273

4.68 ГБ

В этой теме нет новых непрочитанных сообщений. Под огнем / Under Fire [Драма, военный, 1983] BDRip, Avo

salma3

15 | 26

2.17 ГБ

В этой теме нет новых непрочитанных сообщений. Хотят ли русские войны (РЕН-ТВ) [Документальный, военный, политика, 2015] SATRip

Dracon

9 | 1

909.74 МБ


Начать новую тему Ответить на тему  [ 1 сообщение ] 




Для Мосгорсуда, Роскомнадзора и рекламодателей:: mosgorsud-torrent[собачка]yandex.ru