Торрент файл
скачать торрент магнет ссылка Добавлен: 06 апр 2013, 19:31
Размер: 1.46 ГБ
Сидеров: 7
Личеров: 6
Автор

СообщениеДобавлено: 06 апр 2013, 19:31 

Не в сети
Супермодератор
Аватара пользователя
Дата регистрации:
15 фев 2012, 16:44
Возраст: 27
Спасибо: 5134 / 2089
Сообщения: 17379
Фильм базируется на реальной истории создания самолёта МиГ-9



Страна: СССР
Производство: Студия Горького
Жанр:драма
Год выпуска: 1963
Продолжительность: 01:36:21

Перевод: не требуется
Оригинальная аудиодорожка: русский
Cубтитры: нет

Режиссер: Татьяна Лиознова

В ролях: Николай Рыбников, Владимир Седов, Светлана Светличная, Евгений Евстигнеев, Олег Жаков, Сергей Блинников, Георгий Куликов, Николай Погодин, Иван Рыжов, Петр Щербаков...

Описание:
Летчику-испытателю Алексею Колчину было поручено первому поднять в воздух реактивный самолет и указать конструкторам на его недостатки. Первые испытания прошли успешно. Но во время работы над усовершенствованием машины, двигатель взорвался и Колчин погиб. И теперь Сергей Шаров, внимательно изучив рекомендации друга, записанные на магнитофонную пленку, делает вторую попытку…




Исходник: DVD5 R5
Тип релиза: DVDRip
Контейнер: AVI

Видео: 688x528 (4:3), 25 fps, XviD ~ 1931 kbps avg, 0.213 bit/pixel
Аудио: 48 kHz, Dolby AC3 2.0, 224 kbps

Раздача от:

Общее
Полное имя: Im.pokorjaetsja.nebo.1963.DVDRip_[Youtracker]_by_AVP Studio.avi
Формат: AVI
Формат/Информация: Audio Video Interleave
Размер файла: 1,46 Гбайт
Продолжительность: 1 ч. 36 м.
Общий поток: 2165 Кбит/сек
Программа кодирования: VirtualDubMod 1.5.10.3 | http://www.virtualdub-fr.org || (build 2550/release)
Библиотека кодирования: VirtualDubMod build 2550/release

Видео
Идентификатор: 0
Формат: MPEG-4 Visual
Профиль формата: Advanced Simple@L5
Параметр BVOP формата: 1
Параметр QPel формата: Нет
Параметр GMC формата: Без точки перехода
Параметр матрицы формата: Выборочная
Идентификатор кодека: XVID
Идентификатор кодека/Подсказка: XviD
Продолжительность: 1 ч. 36 м.
Битрейт: 1931 Кбит/сек
Ширина: 688 пикселей
Высота: 528 пикселей
Соотношение сторон: 4:3
Частота кадров: 25,000 кадров/сек
Цветовое пространство: YUV
Субдискретизация насыщенности: 4:2:0
Битовая глубина: 8 бит
Тип развёртки: Прогрессивная
Метод сжатия: С потерями
Бит/(Пиксели*Кадры): 0.213
Размер потока: 1,30 Гбайт (89%)
Библиотека кодирования: XviD 65

Аудио
Идентификатор: 1
Формат: AC-3
Формат/Информация: Audio Coding 3
Расширение режима: CM (complete main)
Идентификатор кодека: 2000
Продолжительность: 1 ч. 36 м.
Вид битрейта: Постоянный
Битрейт: 224 Кбит/сек
Каналы: 2 канала
Расположение каналов: Front: L R
Частота: 48,0 КГц
Битовая глубина: 16 бит
Метод сжатия: С потерями
Размер потока: 154 Мбайт (10%)
Выравнивание: Разделение по промежуткам
Продолжительность промежутка: 40мс. (1,00 видеокадр)
Время предзагрузки промежутка: 500мс







реклама партнёра


Вернуться к началу
 Профиль Отправить личное сообщение  
 
   Похожие торренты   Автор   Торрент   Размер 
В этой теме нет новых непрочитанных сообщений. Зорро и три мушкетера / Zorro e i tre moschettieri [боевик, драма, мелодрама, комедия, приключения, 1963] DVDRip, Avo+Sub

salma3

18 | 2

1.47 ГБ

В этой теме нет новых непрочитанных сообщений. Нападение людей-грибов / Matango [ужасы, фантастика, триллер, драма, детектив, 1963] DVDRip, Avo

salma3

19 | 4

1.17 ГБ

В этой теме нет новых непрочитанных сообщений. Немури Кеоширо: Китайский нефрит / Nemuri Kyoshiro: Sappocho (Токузо Танака) [1963, дзидай-гэки, самурайская драма, DVDRip] avo

Nickolas3435

37 | 2

747.21 МБ

В этой теме нет новых непрочитанных сообщений. Небо падших [Драма, 2014] HDTVRip

Dracon

159 | 8

1.95 ГБ

В этой теме нет новых непрочитанных сообщений. Затухающий огонек / Le feu follet [драма, 1963] DVD9, Mvo+Sub

salma3

8 | 3

5.81 ГБ

В этой теме нет новых непрочитанных сообщений. Голубое небо / Blue Sky [драма, мелодрама, 1994] HDTVRip, Mvo

salma3

79 | 29

1.46 ГБ

В этой теме нет новых непрочитанных сообщений. Четверо из Техаса / 4 for Texas [Комедия, вестерн, 1963] DVDRip, Mvo

salma3

23 | 2

1.45 ГБ


Начать новую тему Ответить на тему  [ 1 сообщение ] 




Для Мосгорсуда, Роскомнадзора и рекламодателей:: mosgorsud-torrent[собачка]yandex.ru