Торрент файл
скачать торрент магнет ссылка Добавлен: 30 мар 2013, 20:12
Размер: 1.45 ГБ
Сидеров: 61
Личеров: 6
Автор

СообщениеДобавлено: 30 мар 2013, 20:12 

В сети
Супермодератор
Аватара пользователя
Дата регистрации:
15 фев 2012, 16:44
Возраст: 27
Спасибо: 5121 / 2089
Сообщения: 17292
Страна: СССР
Производство: Ленфильм
Жанр:фэнтези, приключения, семейный
Год выпуска: 1966
Продолжительность: 01:25:49

Перевод: не требуется
Оригинальная аудиодорожка: русский
Cубтитры: нет
Режиссер: Алексей Баталов, Иосиф Шапиро

В ролях: Лина Бракните, Петя Артемьев, Алексей Баталов, Валентин Никулин, Александр Орлов, Рина Зеленая, Роман Филиппов, Сергей Кулагин, Евгений Моргунов, Борис Христофоров, Павел Луспекаев, Николай Вальяно, Борис Ардов, Николай Карнаухов, Алексей Смирнов, Виктор Сергачев, Лев Степанов, Сергей Карнович-Валуа, Павел Суханов, Георгий Штиль, Герман Лупекин...

Описание:
Фильм-сказка о ловком канатоходце Тибуле, борющемся вместе с оружейником Просперо и всем трудовым народом против тиранов, трех Толстяков, которые управляют государством, пока маленький наследник Тутти не достиг совершеннолетия. Борцам за свободу помогают добрый доктор Гаспар и смелая девочка-акробат Суок, которой приходится изображать куклу, чтобы пробраться во дворец и освободить Просперо...




Исходник: DVD9 R5
Тип релиза: DVDRip
Контейнер: AVI
Видео: 704x304 (2,35:1), 25 fps, XviD ~ 1956 kbps avg, 0.366 bit/pixel
Аудио: 48 kHz, Dolby AC3 5.1, 448 kbps

Раздача от:

Общее
Полное имя: Tri.tolstjaka.1966.DVDRip_[Youtracker]_by_AVP Studio.avi
Формат: AVI
Формат/Информация: Audio Video Interleave
Размер файла: 1,45 Гбайт
Продолжительность: 1 ч. 26 м.
Общий поток: 2411 Кбит/сек
Программа кодирования: VirtualDubModRus 1.5.10.2 (build 2542/release)
Библиотека кодирования: VirtualDubMod build 2542/release

Видео
Идентификатор: 0
Формат: MPEG-4 Visual
Профиль формата: Advanced Simple@L5
Параметр BVOP формата: 1
Параметр QPel формата: Нет
Параметр GMC формата: Без точки перехода
Параметр матрицы формата: Выборочная
Идентификатор кодека: XVID
Идентификатор кодека/Подсказка: XviD
Продолжительность: 1 ч. 26 м.
Битрейт: 1956 Кбит/сек
Ширина: 704 пикселя
Высота: 304 пикселя
Соотношение сторон: 2,35:1
Частота кадров: 25,000 кадров/сек
Цветовое пространство: YUV
Субдискретизация насыщенности: 4:2:0
Битовая глубина: 8 бит
Тип развёртки: Прогрессивная
Метод сжатия: С потерями
Бит/(Пиксели*Кадры): 0.366
Размер потока: 1,18 Гбайт (81%)
Библиотека кодирования: XviD 65

Аудио
Идентификатор: 1
Формат: AC-3
Формат/Информация: Audio Coding 3
Расширение режима: CM (complete main)
Идентификатор кодека: 2000
Продолжительность: 1 ч. 25 м.
Вид битрейта: Постоянный
Битрейт: 448 Кбит/сек
Каналы: 6 каналов
Расположение каналов: Front: L C R, Side: L R, LFE
Частота: 48,0 КГц
Битовая глубина: 16 бит
Метод сжатия: С потерями
Размер потока: 275 Мбайт (18%)
Выравнивание: Разделение по промежуткам
Продолжительность промежутка: 40мс. (1,01 видеокадр)
Время предзагрузки промежутка: 500мс







реклама партнёра


Вернуться к началу
 Профиль Отправить личное сообщение  
 
   Похожие торренты   Автор   Торрент   Размер 
В этой теме нет новых непрочитанных сообщений. Галгамет / Galgameth [фэнтези, приключения, семейный, 1996] DVDRip, Mvo

salma3

37 | 5

1.37 ГБ

В этой теме нет новых непрочитанных сообщений. Галгамет / Galgamet [Фэнтези, приключения, семейный, детский, 1996] DVDRip, Dvo+Avo

salma3

44 | 6

1.59 ГБ

В этой теме нет новых непрочитанных сообщений. Ученик Мерлина / The Sorcerer's Apprentice [Фэнтези, приключения, семейный, 2002] DVDRip, Dub

salma3

11 | 2

1.37 ГБ

В этой теме нет новых непрочитанных сообщений. Скачок во времени / A Wrinkle in Time [Фантастика, фэнтези, приключения, семейный, 2003] DVDRip, Mvo

salma3

107 | 6

717.54 МБ

В этой теме нет новых непрочитанных сообщений. Фантастическое путешествие / Fantastic Voyage [фантастика, приключения, 1966] DVDRip, Mvo

salma3

2 | 2

1.46 ГБ

В этой теме нет новых непрочитанных сообщений. Птица Феникс и ковер-самолет / The Phoenix and the Carpet [фэнтези, приключения, семейный, 1997] DVDRip, Mvo

salma3

31 | 2

1.46 ГБ

В этой теме нет новых непрочитанных сообщений. Малефисента / Maleficent [фэнтези, боевик, мелодрама, приключения, семейный, 2014] DVDRip-AVC, dub+sub [Чистый звук]

Dracon

2484 | 10

2.05 ГБ


Начать новую тему Ответить на тему  [ 1 сообщение ] 




Для Мосгорсуда, Роскомнадзора и рекламодателей:: mosgorsud-torrent[собачка]yandex.ru