Торрент файл
скачать торрент магнет ссылка Добавлен: 27 фев 2013, 13:56
Размер: 743.69 МБ
Сидеров: 122
Личеров: 5
Статус: (salma3)
Автор

СообщениеДобавлено: 27 фев 2013, 13:56 

В сети
Супермодератор
Аватара пользователя
Дата регистрации:
15 фев 2012, 16:44
Возраст: 27
Спасибо: 5143 / 2090
Сообщения: 17497
Страна: СССР
Производство: Студия Горького
Жанр:комедия
Год выпуска: 1958
Продолжительность: 01:30:44
Перевод: не требуется
Оригинальная аудиодорожка: русский
Cубтитры: нет
Режиссер: Иван Лукинский

В ролях: Леонид Харитонов, Татьяна Пельтцер, Сергей Блинников, Анна Коломийцева, Дая Смирнова, Михаил Пуговкин, Вера М.Орлова, С.Зайкова, Евгений Шутов, Станислав Минин, К.Синицын, Ю.Ликумс, Т.Жайлибеков, Борис Толмазов, Владимир Лепко...

Описание: Продолжение фильма «Солдат Иван Бровкин». После демобилизации Иван Бровкин гостил дома недолго. Вместе со своими друзьями он решил поехать на целину. А Любаша, не согласившись ехать в далекую землю, снова осталась ждать своего Ивана, который вместе со всеми преодолевал трудности, а вскоре стал бригадиром трактористов, ударником труда.
Мать Ивана переехала к сыну, которому друзья-целинники построили новый дом. Сюда же приехал и Захар Силыч к своей Полине. За свой труд Иван Бровкин был награжден Орденом Трудового Красного Знамени. Теперь он приехал свататься к своей Любаше. Ее родители уже не возражали. После свадьбы молодые люди уехали на целину, чтобы продолжить освоение целинных земель…




Исходник: DVD9 R5
Тип релиза: DVDRip
Контейнер: AVI
Видео: 640x480 (4:3), 25 fps, XviD ~ 1008 kbps avg, 0.131 bit/pixel
Аудио: 48 kHz, MP3 2.0, 128 kbps

Раздача от:

Общее
Полное имя: Ivan.Brovkin.na.celine.1958.DVDRip-745_[Youtracker]_by_AVP Studio.avi
Формат: AVI
Формат/Информация: Audio Video Interleave
Размер файла: 744 Мбайт
Продолжительность: 1 ч. 30 м.
Общий поток: 1146 Кбит/сек
Программа кодирования: VirtualDubMod 1.5.10.3 | http://www.virtualdub-fr.org || (build 2550/release)
Библиотека кодирования: VirtualDubMod build 2550/release

Видео
Идентификатор: 0
Формат: MPEG-4 Visual
Профиль формата: Advanced Simple@L5
Параметр BVOP формата: 1
Параметр QPel формата: Нет
Параметр GMC формата: Без точки перехода
Параметр матрицы формата: Выборочная
Идентификатор кодека: XVID
Идентификатор кодека/Подсказка: XviD
Продолжительность: 1 ч. 30 м.
Битрейт: 1008 Кбит/сек
Ширина: 640 пикселей
Высота: 480 пикселей
Соотношение сторон: 4:3
Частота кадров: 25,000 кадров/сек
Цветовое пространство: YUV
Субдискретизация насыщенности: 4:2:0
Битовая глубина: 8 бит
Тип развёртки: Прогрессивная
Метод сжатия: С потерями
Бит/(Пиксели*Кадры): 0.131
Размер потока: 654 Мбайт (88%)
Библиотека кодирования: XviD 65

Аудио
Идентификатор: 1
Формат: MPEG Audio
Версия формата: Version 1
Профиль формата: Layer 3
Идентификатор кодека: 55
Идентификатор кодека/Подсказка: MP3
Продолжительность: 1 ч. 30 м.
Вид битрейта: Постоянный
Битрейт: 128 Кбит/сек
Каналы: 2 канала
Частота: 48,0 КГц
Метод сжатия: С потерями
Размер потока: 83,1 Мбайт (11%)
Выравнивание: Соединение по промежуткам
Продолжительность промежутка: 40мс. (1,00 видеокадр)
Время предзагрузки промежутка: 504мс.
Библиотека кодирования: L3.99r
Настройки программы: -m s -V 4 -q 2 -lowpass 17 -b 128







реклама партнёра


Вернуться к началу
 Профиль Отправить личное сообщение  
 
   Похожие торренты   Автор   Торрент   Размер 
В этой теме нет новых непрочитанных сообщений. Том и Джерри: Большие гонки / Tom and Jerry's Greatest Chases [01 - 70 из 70] [мультфильм, комедия, семейный, 1941-1958] DVDRip-AVC, Mvo+Sub [лицензия]

salma3

30 | 2

7.7 ГБ

В этой теме нет новых непрочитанных сообщений. Том и Джерри: Большие гонки / Tom and Jerry's Greatest Chases [01 - 70 из 70] [мультфильм, комедия, семейный, 1941-1958] DVDRip, Mvo+Sub [лицензия]

salma3

18 | 12

7.61 ГБ

В этой теме нет новых непрочитанных сообщений. Лимбо / Limbo (Иван Ноэль) [чёрная комедия, мистика, ужасы, 2014] DVDRip, avo

Dracon

4 | 3

996.24 МБ

В этой теме нет новых непрочитанных сообщений. Гордый бунтарь / The Proud Rebel [вестерн, драма, 1958] DVDRip, Avo

salma3

47 | 3

1.42 ГБ

В этой теме нет новых непрочитанных сообщений. Добровольцы (Юрий Егоров) [Драма, военный, романтика, 1958] DVDRip

Dracon

7 | 1

1.45 ГБ

В этой теме нет новых непрочитанных сообщений. Лимбо / Limbo (Иван Ноэль) [чёрная комедия, мистика, ужасы, 2014] WEB-DL 1080p, avo+sub

Dracon

4 | 3

3.7 ГБ

В этой теме нет новых непрочитанных сообщений. Они поженились и у них было много детей / Ils se marierent et eurent beaucoup d'enfants / Ils se marièrent et eurent beaucoup d'enfa (Иван Атталь / Yvan Attal) [2004г., Франция, комедия, мелодрама, DVDRip] MVO

Alfredovich

11 | 4

1.47 ГБ


Начать новую тему Ответить на тему  [ 1 сообщение ] 




Для Мосгорсуда, Роскомнадзора и рекламодателей:: mosgorsud-torrent[собачка]yandex.ru