Торрент файл
скачать торрент магнет ссылка Добавлен: 26 фев 2013, 16:21
Размер: 744.82 МБ
Сидеров: 56
Личеров: 7
Автор

СообщениеДобавлено: 26 фев 2013, 16:21 

Не в сети
Супермодератор
Аватара пользователя
Дата регистрации:
15 фев 2012, 16:44
Возраст: 27
Спасибо: 5130 / 2089
Сообщения: 17350
Страна: СССР
Производство: Ленфильм
Жанр:мелодрама, комедия
Год выпуска: 1954
Продолжительность: 01:35:24
Перевод: не требуется
Оригинальная аудиодорожка: русский
Cубтитры: нет

Режиссер: Александр Ивановский, Надежда Кошеверова

В ролях: Людмила Касаткина, Павел Кадочников, Леонид Быков, Павел Суханов, Сергей Филиппов, Татьяна Пельтцер, Александр Орлов, Константин Сорокин, Гликерия Богданова-Чеснокова, Нина Ургант...

Описание:
Своей беззаветной влюбленностью в цирковое искусство Леночка Воронцова смогла «заразить» спортсмена-мотогонщика Федора Ермолаева. Они создают новаторский номер «мотогонки под куполом цирка».
Федор Ермолаев полюбил Леночку. Она, готова ответить ему взаимностью, но в последний момент отказывается от интересных гастролей, потому что руководство предложило ей стать дрессировщицей любимых тигров. Влюбленные расстаются, но не навсегда. Узнав о предстоящей премьере Леночкиного номера, Ермолаев на мотоцикле мчится через полстраны и успевает обнять любимую после успешного дебюта…




Исходник: DVD5 R5
Тип релиза: DVDRip
Контейнер: AVI
Видео: 592x448 (4:3), 25 fps, XviD ~ 954 kbps avg, 0.144 bit/pixel
Аудио: 48 kHz, MP3 2.0, 128 kbps

Раздача от:

Общее
Полное имя: Ukrotitel'nica.tigrov.1954.DVDRip-745_[Youtracker]_by_AVP Studio.avi
Формат: AVI
Формат/Информация: Audio Video Interleave
Размер файла: 745 Мбайт
Продолжительность: 1 ч. 35 м.
Общий поток: 1092 Кбит/сек
Программа кодирования: VirtualDubMod 1.5.10.3 | http://www.virtualdub-fr.org || (build 2550/release)
Библиотека кодирования: VirtualDubMod build 2550/release

Видео
Идентификатор: 0
Формат: MPEG-4 Visual
Профиль формата: Advanced Simple@L5
Параметр BVOP формата: 1
Параметр QPel формата: Нет
Параметр GMC формата: Без точки перехода
Параметр матрицы формата: Выборочная
Идентификатор кодека: XVID
Идентификатор кодека/Подсказка: XviD
Продолжительность: 1 ч. 35 м.
Битрейт: 954 Кбит/сек
Ширина: 592 пикселя
Высота: 448 пикселей
Соотношение сторон: 4:3
Частота кадров: 25,000 кадров/сек
Цветовое пространство: YUV
Субдискретизация насыщенности: 4:2:0
Битовая глубина: 8 бит
Тип развёртки: Прогрессивная
Метод сжатия: С потерями
Бит/(Пиксели*Кадры): 0.144
Размер потока: 651 Мбайт (87%)
Библиотека кодирования: XviD 65

Аудио
Идентификатор: 1
Формат: MPEG Audio
Версия формата: Version 1
Профиль формата: Layer 3
Идентификатор кодека: 55
Идентификатор кодека/Подсказка: MP3
Продолжительность: 1 ч. 35 м.
Вид битрейта: Постоянный
Битрейт: 128 Кбит/сек
Каналы: 2 канала
Частота: 48,0 КГц
Метод сжатия: С потерями
Размер потока: 87,3 Мбайт (12%)
Выравнивание: Соединение по промежуткам
Продолжительность промежутка: 40мс. (1,00 видеокадр)
Время предзагрузки промежутка: 504мс.
Библиотека кодирования: L3.99r
Настройки программы: -m s -V 4 -q 2 -lowpass 17 -b 128







реклама партнёра


Вернуться к началу
 Профиль Отправить личное сообщение  
 
   Похожие торренты   Автор   Торрент   Размер 
В этой теме нет новых непрочитанных сообщений. Светлое Рождество / White Christmas [Мюзикл, мелодрама, комедия, 1954] BDRip 1080p, Dvo

salma3

10 | 7

8.7 ГБ

В этой теме нет новых непрочитанных сообщений. Черный щит Фолуорта / The Black Shield of Falworth [мелодрама, приключения, история, 1954] BDRip 720p, Mvo

salma3

27 | 3

4.37 ГБ

В этой теме нет новых непрочитанных сообщений. Учитель Дон Жуана / Il maestro di Don Giovanni [приключения, 1954] DVDRip. Avo

salma3

3 | 4

1.38 ГБ

В этой теме нет новых непрочитанных сообщений. Месть тугов / La vendetta dei Tughs [приключения, 1954] DVDRip, Avo

salma3

3 | 6

870.08 МБ

В этой теме нет новых непрочитанных сообщений. Знак язычника / Sign of the Pagan [драма, история, 1954] DVDRip, Avo

salma3

5 | 2

923.27 МБ

В этой теме нет новых непрочитанных сообщений. Бенгальская бригада / Bengal Brigade [приключения, военный, 1954] DVDRip, Avo

salma3

4 | 2

1.53 ГБ

В этой теме нет новых непрочитанных сообщений. 1954 Alcatraz [Adventure, 2014] [RePack]

Dracon

27 | 14

865.69 МБ


СообщениеДобавлено: 10 ноя 2016, 04:55 

Не в сети
Аватара пользователя
Дата регистрации:
04 ноя 2016, 19:07
Возраст: 34
Спасибо: 0 / 0
Сообщения: 104
Откуда: Madagascar
I think, that you are mistaken. I can prove it. Write to me in PM.

_________________
fat burning food


Вернуться к началу
 Профиль Отправить личное сообщение  
 
Начать новую тему Ответить на тему  [ Сообщений: 2 ] 




Для Мосгорсуда, Роскомнадзора и рекламодателей:: mosgorsud-torrent[собачка]yandex.ru