Торрент файл
скачать торрент магнет ссылка Добавлен: 26 фев 2013, 16:19
Размер: 744.15 МБ
Сидеров: 63
Личеров: 8
Статус: (salma3)
Автор

СообщениеДобавлено: 26 фев 2013, 16:19 

Не в сети
Супермодератор
Аватара пользователя
Дата регистрации:
15 фев 2012, 16:44
Возраст: 28
Спасибо: 6584 / 2144
Сообщения: 44081
Страна: СССР
Производство: Ленфильм
Жанр:комедия
Год выпуска: 1957
Продолжительность: 01:08:50
Перевод: не требуется
Оригинальная аудиодорожка: русский
Cубтитры: нет

Режиссер: Сергей Сиделев

В ролях: ПЛеонид Харитонов, Всеволод Ларионов, Георгий Черноволенко, Яков Родос, Джемма Осмоловская, Вера Карпова, Евгений Леонов, Людмила Макарова, Сергей Филиппов, Ольга Порудолинская, Георгий Семенов, Александр Орлов (II), Константин Одашевский, Юрий Боголюбов...

Описание:
Возвращающийся навеселе главбух Смирнов забирается в будку регулировщика и нарушает движение транспорта на одной из улиц Ленинграда. Но постовой Вася Шанешкин доставляет в отделение милиции не нарушителя, а вполне порядочного гражданина — кассира Стройтреста Воднева, который, ко всему прочему, оказывается отцом его любимой девушки Кати.
Вася признает свою вину, но не решается извиниться — и оставляет обиженного наедине с плохими мыслями о советской милиции. Однако молодому сержанту вскоре представится возможность защитить кассира от нападения — и герой выполнит свой долг…




Исходник: DVD5 R5
Тип релиза: DVDRip
Контейнер: AVI

Видео: 688x528 (4:3), 25 fps, XviD ~ 1374 kbps avg, 0.151 bit/pixel
Аудио: 48 kHz, MP3 2.0, 128 kbps

Раздача от:

Общее
Полное имя: Ulica.polna.neozhidannostej.1957.DVDRip_[Youtracker]_by_AVP Studio.avi
Формат: AVI
Формат/Информация: Audio Video Interleave
Размер файла: 744 Мбайт
Продолжительность: 1 ч. 8 м.
Общий поток: 1512 Кбит/сек
Программа кодирования: VirtualDubMod 1.5.10.3 | http://www.virtualdub-fr.org || (build 2550/release)
Библиотека кодирования: VirtualDubMod build 2550/release

Видео
Идентификатор: 0
Формат: MPEG-4 Visual
Профиль формата: Advanced Simple@L5
Параметр BVOP формата: 1
Параметр QPel формата: Нет
Параметр GMC формата: Без точки перехода
Параметр матрицы формата: Выборочная
Идентификатор кодека: XVID
Идентификатор кодека/Подсказка: XviD
Продолжительность: 1 ч. 8 м.
Битрейт: 1374 Кбит/сек
Ширина: 688 пикселей
Высота: 528 пикселей
Соотношение сторон: 4:3
Частота кадров: 25,000 кадров/сек
Цветовое пространство: YUV
Субдискретизация насыщенности: 4:2:0
Битовая глубина: 8 бит
Тип развёртки: Прогрессивная
Метод сжатия: С потерями
Бит/(Пиксели*Кадры): 0.151
Размер потока: 676 Мбайт (91%)
Библиотека кодирования: XviD 65

Аудио
Идентификатор: 1
Формат: MPEG Audio
Версия формата: Version 1
Профиль формата: Layer 3
Идентификатор кодека: 55
Идентификатор кодека/Подсказка: MP3
Продолжительность: 1 ч. 8 м.
Вид битрейта: Постоянный
Битрейт: 128 Кбит/сек
Каналы: 2 канала
Частота: 48,0 КГц
Метод сжатия: С потерями
Размер потока: 63,0 Мбайт (8%)
Выравнивание: Соединение по промежуткам
Продолжительность промежутка: 40мс. (1,00 видеокадр)
Время предзагрузки промежутка: 504мс.
Библиотека кодирования: L3.99r
Настройки программы: -m s -V 4 -q 2 -lowpass 17 -b 128







реклама партнёра


Вернуться к началу
 Профиль Отправить личное сообщение  
 
   Похожие торренты   Автор   Торрент   Размер 
В этой теме нет новых непрочитанных сообщений. Улица Борнхольмер / Bornholmer Strasse (Кристиан Швохов / Christian Schwochow) [2014 г., Германия, драма, комедия, DVDRip] Sub

Alfredovich

23 | 7

1.27 ГБ

В этой теме нет новых непрочитанных сообщений. Проклятие мумии Ацтеков / La Maldicion De La Momia Azteca [Приключения, комедия, 1957] DVDRip, Avo

salma3

1 | 1

745.33 МБ

В этой теме нет новых непрочитанных сообщений. Улица [01-05 из 16] [Драма, комедия, мелодрама, триллер, 2017] SATRip-AVC

salma3

0 | 0

1.29 ГБ

В этой теме нет новых непрочитанных сообщений. Хождение по мукам: Сёстры [драма, 1957] DVDRip

salma3

9 | 8

1.46 ГБ

В этой теме нет новых непрочитанных сообщений. Хождение по мукам: Сёстры [драма, 1957] DVDRip-AVC

salma3

16 | 7

1.46 ГБ

В этой теме нет новых непрочитанных сообщений. Дело было в Пенькове [драма, мелодрама, 1957] DVDRip

salma3

103 | 11

1.45 ГБ

В этой теме нет новых непрочитанных сообщений. Балтийская слава [драма, история, военный, приключения, 1957] DVDRip-AVC

salma3

36 | 12

1.09 ГБ


Начать новую тему Ответить на тему  [ 1 сообщение ] 




Для Мосгорсуда, Роскомнадзора и рекламодателей:: mosgorsud-torrent[собачка]yandex.ru