Торрент файл
скачать торрент магнет ссылка Добавлен: 26 фев 2013, 14:14
Размер: 1.46 ГБ
Сидеров: 49
Личеров: 8
Статус: (salma3)
Автор

СообщениеДобавлено: 26 фев 2013, 14:14 

Не в сети
Супермодератор
Аватара пользователя
Дата регистрации:
15 фев 2012, 16:44
Возраст: 27
Спасибо: 5139 / 2090
Сообщения: 17432
Страна: СССР
Производство: Грузия-фильм
Жанр:фантастика, приключения
Год выпуска: 1955
Продолжительность: 02:22:57 (01:18:51+01:04:06)
Перевод: не требуется
Оригинальная аудиодорожка: русский
Cубтитры: нет

Режиссер: Константин Пипинашвили

В ролях: Николай Чистяков, Сергей Столяров, Игорь Владимиров, Сергей Голованов, Пётр Соболевский, Сергей Комаров, Антонина Максимова, Павел Луспекаев, Михаил Глузский...

Описание:
В послевоенные годы в Атлантическом океане при загадочных обстоятельствах погибает советский теплоход «Арктика». Одновременно в Тихом океане взрывается французский теплоход «Виктуар». Советскому экипажу хорошо оснащенной подводной лодки «Пионер» предстоит выяснить причину гибели двух теплоходов…




Исходник: 2хDVD5 R5
Тип релиза: DVDRip
Контейнер: AVI
Видео: 688x512 (4:3), 25 fps, XviD ~ 1305 kbps avg, 0.148 bit/pixel
Аудио: 48 kHz, MP3 2.0, 128 kbps

Раздача от:

Общее
Полное имя: Tajna.dvuh.okeanov.1955.DVDRip.avi
Формат: AVI
Формат/Информация: Audio Video Interleave
Размер файла: 822 Мбайт
Продолжительность: 1 ч. 19 м.
Общий поток: 1442 Кбит/сек
Программа кодирования: VirtualDubMod 1.5.10.3 | http://www.virtualdub-fr.org || (build 2550/release)
Библиотека кодирования: VirtualDubMod build 2550/release

Видео
Идентификатор: 0
Формат: MPEG-4 Visual
Профиль формата: Advanced Simple@L5
Параметр BVOP формата: 1
Параметр QPel формата: Нет
Параметр GMC формата: Без точки перехода
Параметр матрицы формата: Выборочная
Идентификатор кодека: XVID
Идентификатор кодека/Подсказка: XviD
Продолжительность: 1 ч. 19 м.
Битрейт: 1305 Кбит/сек
Ширина: 688 пикселей
Высота: 512 пикселей
Соотношение сторон: 4:3
Частота кадров: 25,000 кадров/сек
Цветовое пространство: YUV
Субдискретизация насыщенности: 4:2:0
Битовая глубина: 8 бит
Тип развёртки: Прогрессивная
Метод сжатия: С потерями
Бит/(Пиксели*Кадры): 0.148
Размер потока: 744 Мбайт (90%)
Библиотека кодирования: XviD 65

Аудио
Идентификатор: 1
Формат: MPEG Audio
Версия формата: Version 1
Профиль формата: Layer 3
Идентификатор кодека: 55
Идентификатор кодека/Подсказка: MP3
Продолжительность: 1 ч. 19 м.
Вид битрейта: Постоянный
Битрейт: 128 Кбит/сек
Каналы: 2 канала
Частота: 48,0 КГц
Метод сжатия: С потерями
Размер потока: 73,0 Мбайт (9%)
Выравнивание: Соединение по промежуткам
Продолжительность промежутка: 40мс. (1,00 видеокадр)
Время предзагрузки промежутка: 504мс.
Библиотека кодирования: L3.99r
Настройки программы: -m s -V 4 -q 2 -lowpass 17 -b 128







реклама партнёра


Вернуться к началу
 Профиль Отправить личное сообщение  
 
   Похожие торренты   Автор   Торрент   Размер 
В этой теме нет новых непрочитанных сообщений. У двух голубок / Aux deux colombes [Комедия, 1955] DVDRip, Avo+Sub

salma3

13 | 2

1.43 ГБ

В этой теме нет новых непрочитанных сообщений. Тайна трех океанов (2014) HDTVRip от GeneralFilm

PriZraK

18 | 4

1.41 ГБ

В этой теме нет новых непрочитанных сообщений. Мунфлит / Moonfleet [драма, приключения, 1955] DVDRip, Avo

salma3

3 | 3

1.4 ГБ

В этой теме нет новых непрочитанных сообщений. Тайна 2: Новые приключения на Амазонке / Taina 2 - A Aventura Continua [приключения, семейный, 2004] DVDRip, Mvo

salma3

17 | 5

690.12 МБ

В этой теме нет новых непрочитанных сообщений. Тайна астероида / Внутри скалы / Within the Rock [Фантастика, 1996] DVDRip, Dvo

salma3

54 | 3

1.45 ГБ

В этой теме нет новых непрочитанных сообщений. Лоция Эдема / Тайна подземелья / Eden Log [ужасы, фантастика, триллер, 2007] DVDRip, Dvo

salma3

0 | 3

1.46 ГБ

В этой теме нет новых непрочитанных сообщений. Тайна рыцарей Дельты / Quest of the Delta Knights [Фэнтези, боевик, приключения, 1993] DVDRip, Mvo

salma3

18 | 2

1.37 ГБ


Начать новую тему Ответить на тему  [ 1 сообщение ] 




Для Мосгорсуда, Роскомнадзора и рекламодателей:: mosgorsud-torrent[собачка]yandex.ru