Торрент файл
скачать торрент магнет ссылка Добавлен: 17 дек 2012, 20:42
Размер: 2.18 ГБ
Сидеров: 44
Личеров: 10
Автор

СообщениеДобавлено: 17 дек 2012, 20:42 

Не в сети
5 Звёзд
Аватара пользователя
Дата регистрации:
20 апр 2012, 10:59
Возраст: 35
Спасибо: 941 / 102
Сообщения: 1292
Откуда: Москва

Страна: СССР
Год выпуска: 1973 - 1974
Студия: Студия Горького

Жанр:фантастика, комедия, приключения, семейный
Продолжительность: 01:19:52 + 01:19:39

Перевод: не требуется
Оригинальная аудиодорожка: русский
Cубтитры: нет

Режиссер: Ричард Викторов

В ролях: Иннокентий Смоктуновский, Василий Меркурьев, Лев Дуров, Юрий Медведев, Петр Меркурьев, Анатолий Адоскин, Владимир Басов-младший, Ольга Битюкова, Наталья Фатеева, Николай Фигуровский, Александр Григорьев, Михаил Ершов, Артем Карапетян, Валентина Куценко, Надежда Овчарова, Ирина Попова, Сергей Радченко, Раиса Рязанова, Владимир Савин, Надежда Семенцова, Наталья Стриженова, Анна Викторова, Николай Викторов, Михаил Янушкевич...

Описание:
Москва-Кассиопея:
Виктор Середа, школьный авторитет во всем, что касается точных наук, рассказывает о своем проекте полета к созвездию Кассиопеи на космическом корабле «Заря».
Собственно, ничего бы не произошло, если бы вдруг не появилась некая загадочная личность, представившая себя как И. О. О., что означает исполняющий особые обязанности.
Как выяснилось, из детей не старше 14 лет набирается команда (шесть человек) для… полёта в космосе. Почему дети должны быть младше 14 лет? Да потому, что полёт туда и обратно для детей займёт больше пятидесяти лет, а на Земле и то пройдут столетия. И всё бы шло по плану, если бы на корабле не оказался седьмой участник — тайком пробравшийся туда хулиган Федя Лобанов, создатель суперклея…
Отроки во Вселенной:
С планеты Альфа созвездия Кассиопея на Землю были посланы сигналы бедствия. В соответствии с проектом Виктора Середы туда отправляется экспедиция. Команда формируется из подростков не старше 14 лет, чтобы к концу полета экипаж составляли космонавты в самом расцвете сил. Но из-за безответственного поведения космического зайца Лобанова корабль оказывается у конечной цели значительно раньше намеченного срока.
Экипаж юных астронавтов оснащен поистине уникальной техникой — тем не менее ему предстоит преодолеть множество сложных проблем и проявить исключительную изобретательность…








Исходник: 2xDVD5 R5
Тип релиза: DVDRip-AVC
Контейнер: MKV

Видео: 712x412@1024x412 (2.35:1), 25 fps, H264 ~ 1511 kbps avg, 0.206 bit/pixel
Видео: 720x432@1024x432 (2.35:1), 25 fps, H264 ~ 1511 kbps avg, 0.194 bit/pixel
Аудио: 48 kHz, AC3, 6 ch, 448.00 kbps

Раздача от:

Общее
Полное имя: Moskva-Kassiopeja.1973.DVDRip-AVC_[Youtracker]_by_AVP Studio.mkv
Формат: Matroska
Версия формата: Version 2
Размер файла: 1,09 Гбайт
Продолжительность: 1 ч. 19 м.
Общий поток: 1961 Кбит/сек
Дата кодирования: UTC 2012-12-17 01:25:48
Программа кодирования: mkvmerge v5.0.1 ('Es ist Sommer') built on Nov6 2011 16:23:40
Библиотека кодирования: libebml v1.2.2 + libmatroska v1.3.0

Видео
Идентификатор: 1
Формат: AVC
Формат/Информация: Advanced Video Codec
Профиль формата: High@L4.1
Параметр CABAC формата: Да
Параметр ReFrames формата: 11 кадров
Идентификатор кодека: V_MPEG4/ISO/AVC
Продолжительность: 1 ч. 19 м.
Битрейт: 1511 Кбит/сек
Ширина: 712 пикселей
Высота: 412 пикселей
Соотношение сторон: 2,35:1
Соотношение сторон в оригинале: 2,35:1
Частота кадров: 25,000 кадров/сек
Цветовое пространство: YUV
Субдискретизация насыщенности: 4:2:0
Битовая глубина: 8 бит
Тип развёртки: Прогрессивная
Бит/(Пиксели*Кадры): 0.206
Размер потока: 842 Мбайт (75%)
Библиотека кодирования: x264 core 119 r2106 07efeb4
Настройки программы: cabac=1 / ref=11 / deblock=1:-2:-1 / analyse=0x3:0x113 / me=umh / subme=9 / psy=1 / psy_rd=1.00:0.20 / mixed_ref=1 / me_range=32 / chroma_me=1 / trellis=1 / 8x8dct=1 / cqm=0 / deadzone=21,11 / fast_pskip=0 / chroma_qp_offset=-3 / threads=3 / sliced_threads=0 / nr=0 / decimate=0 / interlaced=0 / bluray_compat=0 / constrained_intra=0 / bframes=8 / b_pyramid=2 / b_adapt=2 / b_bias=0 / direct=3 / weightb=1 / open_gop=0 / weightp=2 / keyint=250 / keyint_min=25 / scenecut=40 / intra_refresh=0 / rc_lookahead=60 / rc=2pass / mbtree=1 / bitrate=1511 / ratetol=1.0 / qcomp=0.60 / qpmin=0 / qpmax=69 / qpstep=4 / cplxblur=20.0 / qblur=0.5 / ip_ratio=1.40 / aq=1:1.00
Default: Да
Forced: Нет

Аудио
Идентификатор: 2
Формат: AC-3
Формат/Информация: Audio Coding 3
Расширение режима: CM (complete main)
Идентификатор кодека: A_AC3
Продолжительность: 1 ч. 19 м.
Вид битрейта: Постоянный
Битрейт: 448 Кбит/сек
Каналы: 6 каналов
Расположение каналов: Front: L C R, Side: L R, LFE
Частота: 48,0 КГц
Битовая глубина: 16 бит
Метод сжатия: С потерями
Размер потока: 256 Мбайт (23%)
Default: Да
Forced: Нет

Общее
Полное имя: Otroki.vo.Vselennoj.1974.DVDRip-AVC_[Youtracker]_by_AVP Studio.mkv
Формат: Matroska
Версия формата: Version 2
Размер файла: 1,09 Гбайт
Продолжительность: 1 ч. 19 м.
Общий поток: 1961 Кбит/сек
Дата кодирования: UTC 2012-12-17 06:26:28
Программа кодирования: mkvmerge v5.0.1 ('Es ist Sommer') built on Nov6 2011 16:23:40
Библиотека кодирования: libebml v1.2.2 + libmatroska v1.3.0

Видео
Идентификатор: 1
Формат: AVC
Формат/Информация: Advanced Video Codec
Профиль формата: High@L4.1
Параметр CABAC формата: Да
Параметр ReFrames формата: 11 кадров
Идентификатор кодека: V_MPEG4/ISO/AVC
Продолжительность: 1 ч. 19 м.
Битрейт: 1511 Кбит/сек
Ширина: 720 пикселей
Высота: 432 пикселя
Соотношение сторон: 2,35:1
Соотношение сторон в оригинале: 2,35:1
Частота кадров: 25,000 кадров/сек
Цветовое пространство: YUV
Субдискретизация насыщенности: 4:2:0
Битовая глубина: 8 бит
Тип развёртки: Прогрессивная
Бит/(Пиксели*Кадры): 0.194
Размер потока: 840 Мбайт (75%)
Библиотека кодирования: x264 core 119 r2106 07efeb4
Настройки программы: cabac=1 / ref=11 / deblock=1:-2:-1 / analyse=0x3:0x113 / me=umh / subme=9 / psy=1 / psy_rd=1.00:0.20 / mixed_ref=1 / me_range=32 / chroma_me=1 / trellis=1 / 8x8dct=1 / cqm=0 / deadzone=21,11 / fast_pskip=0 / chroma_qp_offset=-3 / threads=3 / sliced_threads=0 / nr=0 / decimate=0 / interlaced=0 / bluray_compat=0 / constrained_intra=0 / bframes=8 / b_pyramid=2 / b_adapt=2 / b_bias=0 / direct=3 / weightb=1 / open_gop=0 / weightp=2 / keyint=250 / keyint_min=25 / scenecut=40 / intra_refresh=0 / rc_lookahead=60 / rc=2pass / mbtree=1 / bitrate=1511 / ratetol=1.0 / qcomp=0.60 / qpmin=0 / qpmax=69 / qpstep=4 / cplxblur=20.0 / qblur=0.5 / ip_ratio=1.40 / aq=1:1.00
Default: Да
Forced: Нет

Аудио
Идентификатор: 2
Формат: AC-3
Формат/Информация: Audio Coding 3
Расширение режима: CM (complete main)
Идентификатор кодека: A_AC3
Продолжительность: 1 ч. 19 м.
Вид битрейта: Постоянный
Битрейт: 448 Кбит/сек
Каналы: 6 каналов
Расположение каналов: Front: L C R, Side: L R, LFE
Частота: 48,0 КГц
Битовая глубина: 16 бит
Метод сжатия: С потерями
Размер потока: 255 Мбайт (23%)
Default: Да
Forced: Нет









реклама партнёра


Вернуться к началу
 Профиль Отправить личное сообщение  
 
   Похожие торренты   Автор   Торрент   Размер 
В этой теме нет новых непрочитанных сообщений. На Краю Вселенной / Далеко во Вселенной / Farscape [S01] [Фантастика, Фэнтези, Приключения, 1999] DVD5, Mvo [ТНТ]

salma3

31 | 56

51.63 ГБ

В этой теме нет новых непрочитанных сообщений. Повелители вселенной / Властелины вселенной / Masters of the Universe [фантастика, фэнтези, боевик, триллер, приключения, 1987] BDRip 1080p, Mvo

salma3

3 | 2

11.93 ГБ

В этой теме нет новых непрочитанных сообщений. Парень и его пес / A Boy and His Dog [фантастика, триллер, драма, комедия, 1974] DVDRip, Avo [Алексеев]

salma3

17 | 2

1.45 ГБ

В этой теме нет новых непрочитанных сообщений. Скорый «Москва-Россия» (Игорь Волошин) [2014, комедия, приключения] DVDRip | Лицензия

PriZraK

54 | 3

1.37 ГБ

В этой теме нет новых непрочитанных сообщений. Дипломатический багаж / La Valise [комедия, приключения, 1973] DVDRip, Mvo

salma3

17 | 3

1.31 ГБ

В этой теме нет новых непрочитанных сообщений. Brownsville Station - Collection [1973-1974, Boogie, Glam Rock, MP3]

PriZraK

0 | 2

143.94 МБ

В этой теме нет новых непрочитанных сообщений. Малыши из мусорного бачка / The Garbage Pail Kids Movie [фантастика, комедия, приключения, семейный, 1987] DVDRip, Avo

salma3

42 | 10

2 ГБ


Начать новую тему Ответить на тему  [ 1 сообщение ] 




Для Мосгорсуда, Роскомнадзора и рекламодателей:: mosgorsud-torrent[собачка]yandex.ru