Торрент файл
скачать торрент магнет ссылка Добавлен: 17 дек 2012, 20:32
Размер: 1.46 ГБ
Сидеров: 137
Личеров: 10
Автор

СообщениеДобавлено: 17 дек 2012, 20:32 

Не в сети
5 Звёзд
Аватара пользователя
Дата регистрации:
20 апр 2012, 10:59
Возраст: 35
Спасибо: 941 / 102
Сообщения: 1292
Откуда: Москва

Страна: СССР
Год выпуска: 1973 - 1974
Студия: Студия Горького

Жанр:фантастика, комедия, приключения, семейный
Продолжительность: 01:19:52 + 01:19:39

Перевод: не требуется
Оригинальная аудиодорожка: русский
Cубтитры: нет

Режиссер: Ричард Викторов

В ролях: Иннокентий Смоктуновский, Василий Меркурьев, Лев Дуров, Юрий Медведев, Петр Меркурьев, Анатолий Адоскин, Владимир Басов-младший, Ольга Битюкова, Наталья Фатеева, Николай Фигуровский, Александр Григорьев, Михаил Ершов, Артем Карапетян, Валентина Куценко, Надежда Овчарова, Ирина Попова, Сергей Радченко, Раиса Рязанова, Владимир Савин, Надежда Семенцова, Наталья Стриженова, Анна Викторова, Николай Викторов, Михаил Янушкевич...

Описание:
Москва-Кассиопея:
Виктор Середа, школьный авторитет во всем, что касается точных наук, рассказывает о своем проекте полета к созвездию Кассиопеи на космическом корабле «Заря».
Собственно, ничего бы не произошло, если бы вдруг не появилась некая загадочная личность, представившая себя как И. О. О., что означает исполняющий особые обязанности.
Как выяснилось, из детей не старше 14 лет набирается команда (шесть человек) для… полёта в космосе. Почему дети должны быть младше 14 лет? Да потому, что полёт туда и обратно для детей займёт больше пятидесяти лет, а на Земле и то пройдут столетия. И всё бы шло по плану, если бы на корабле не оказался седьмой участник — тайком пробравшийся туда хулиган Федя Лобанов, создатель суперклея…
Отроки во Вселенной:
С планеты Альфа созвездия Кассиопея на Землю были посланы сигналы бедствия. В соответствии с проектом Виктора Середы туда отправляется экспедиция. Команда формируется из подростков не старше 14 лет, чтобы к концу полета экипаж составляли космонавты в самом расцвете сил. Но из-за безответственного поведения космического зайца Лобанова корабль оказывается у конечной цели значительно раньше намеченного срока.
Экипаж юных астронавтов оснащен поистине уникальной техникой — тем не менее ему предстоит преодолеть множество сложных проблем и проявить исключительную изобретательность…







Исходник: 2хDVD5 R5
Тип релиза: DVDRip
Контейнер: AVI

Видео: 704x304 (2,35:1), 25 fps, XviD ~ 1170 kbps avg, 0.219 bit/pixel
Аудио: 48 kHz, MP3, 2 ch, 128.00 kbps

Раздача от:

Общее
Полное имя: Moskva-Kassiopeja.1973.DVDRip_[Youtracker]_by_AVP Studio.avi
Формат: AVI
Формат/Информация: Audio Video Interleave
Размер файла: 747 Мбайт
Продолжительность: 1 ч. 19 м.
Общий поток: 1307 Кбит/сек
Программа кодирования: VirtualDubMod 1.5.10.3 | http://www.virtualdub-fr.org || (build 2550/release)
Библиотека кодирования: VirtualDubMod build 2550/release

Видео
Идентификатор: 0
Формат: MPEG-4 Visual
Профиль формата: Advanced Simple@L5
Параметр BVOP формата: 1
Параметр QPel формата: Нет
Параметр GMC формата: Без точки перехода
Параметр матрицы формата: Выборочная
Идентификатор кодека: XVID
Идентификатор кодека/Подсказка: XviD
Продолжительность: 1 ч. 19 м.
Битрейт: 1170 Кбит/сек
Ширина: 704 пикселя
Высота: 304 пикселя
Соотношение сторон: 2,35:1
Частота кадров: 25,000 кадров/сек
Цветовое пространство: YUV
Субдискретизация насыщенности: 4:2:0
Битовая глубина: 8 бит
Тип развёртки: Прогрессивная
Метод сжатия: С потерями
Бит/(Пиксели*Кадры): 0.219
Размер потока: 668 Мбайт (89%)
Библиотека кодирования: XviD 65

Аудио
Идентификатор: 1
Формат: MPEG Audio
Версия формата: Version 1
Профиль формата: Layer 3
Идентификатор кодека: 55
Идентификатор кодека/Подсказка: MP3
Продолжительность: 1 ч. 19 м.
Вид битрейта: Постоянный
Битрейт: 128 Кбит/сек
Каналы: 2 канала
Частота: 48,0 КГц
Метод сжатия: С потерями
Размер потока: 73,1 Мбайт (10%)
Выравнивание: Соединение по промежуткам
Продолжительность промежутка: 40мс. (1,00 видеокадр)
Время предзагрузки промежутка: 504мс.
Библиотека кодирования: L3.99r
Настройки программы: -m s -V 4 -q 2 -lowpass 17 -b 128

Общее
Полное имя: Otroki.vo.Vselennoj.1974.DVDRip_[Youtracker]_by_AVP Studio.avi
Формат: AVI
Формат/Информация: Audio Video Interleave
Размер файла: 745 Мбайт
Продолжительность: 1 ч. 19 м.
Общий поток: 1308 Кбит/сек
Программа кодирования: VirtualDubMod 1.5.10.3 | http://www.virtualdub-fr.org || (build 2550/release)
Библиотека кодирования: VirtualDubMod build 2550/release

Видео
Идентификатор: 0
Формат: MPEG-4 Visual
Профиль формата: Advanced Simple@L5
Параметр BVOP формата: 1
Параметр QPel формата: Нет
Параметр GMC формата: Без точки перехода
Параметр матрицы формата: Выборочная
Идентификатор кодека: XVID
Идентификатор кодека/Подсказка: XviD
Продолжительность: 1 ч. 19 м.
Битрейт: 1170 Кбит/сек
Ширина: 704 пикселя
Высота: 304 пикселя
Соотношение сторон: 2,35:1
Частота кадров: 25,000 кадров/сек
Цветовое пространство: YUV
Субдискретизация насыщенности: 4:2:0
Битовая глубина: 8 бит
Тип развёртки: Прогрессивная
Метод сжатия: С потерями
Бит/(Пиксели*Кадры): 0.219
Размер потока: 667 Мбайт (89%)
Библиотека кодирования: XviD 65

Аудио
Идентификатор: 1
Формат: MPEG Audio
Версия формата: Version 1
Профиль формата: Layer 3
Идентификатор кодека: 55
Идентификатор кодека/Подсказка: MP3
Продолжительность: 1 ч. 19 м.
Вид битрейта: Постоянный
Битрейт: 128 Кбит/сек
Каналы: 2 канала
Частота: 48,0 КГц
Метод сжатия: С потерями
Размер потока: 72,9 Мбайт (10%)
Выравнивание: Соединение по промежуткам
Продолжительность промежутка: 40мс. (1,00 видеокадр)
Время предзагрузки промежутка: 504мс.
Библиотека кодирования: L3.99r
Настройки программы: -m s -V 4 -q 2 -lowpass 17 -b 128









реклама партнёра


Вернуться к началу
 Профиль Отправить личное сообщение  
 
   Похожие торренты   Автор   Торрент   Размер 
В этой теме нет новых непрочитанных сообщений. На Краю Вселенной / Далеко во Вселенной / Farscape [S01] [Фантастика, Фэнтези, Приключения, 1999] DVD5, Mvo [ТНТ]

salma3

31 | 56

51.63 ГБ

В этой теме нет новых непрочитанных сообщений. Повелители вселенной / Властелины вселенной / Masters of the Universe [фантастика, фэнтези, боевик, триллер, приключения, 1987] BDRip 1080p, Mvo

salma3

3 | 2

11.93 ГБ

В этой теме нет новых непрочитанных сообщений. Парень и его пес / A Boy and His Dog [фантастика, триллер, драма, комедия, 1974] DVDRip, Avo [Алексеев]

salma3

17 | 2

1.45 ГБ

В этой теме нет новых непрочитанных сообщений. Скорый «Москва-Россия» (Игорь Волошин) [2014, комедия, приключения] DVDRip | Лицензия

PriZraK

54 | 3

1.37 ГБ

В этой теме нет новых непрочитанных сообщений. Дипломатический багаж / La Valise [комедия, приключения, 1973] DVDRip, Mvo

salma3

17 | 3

1.31 ГБ

В этой теме нет новых непрочитанных сообщений. Brownsville Station - Collection [1973-1974, Boogie, Glam Rock, MP3]

PriZraK

0 | 2

143.94 МБ

В этой теме нет новых непрочитанных сообщений. Малыши из мусорного бачка / The Garbage Pail Kids Movie [фантастика, комедия, приключения, семейный, 1987] DVDRip, Avo

salma3

42 | 10

2 ГБ


Начать новую тему Ответить на тему  [ 1 сообщение ] 




Для Мосгорсуда, Роскомнадзора и рекламодателей:: mosgorsud-torrent[собачка]yandex.ru