Торрент файл
скачать торрент магнет ссылка Добавлен: 16 дек 2012, 05:01
Размер: 1.33 ГБ
Сидеров: 1
Личеров: 5
Статус: (Aleksandr.ru)
Автор

СообщениеДобавлено: 16 дек 2012, 05:01 

Не в сети
Аватара пользователя
Дата регистрации:
16 окт 2011, 02:22
Спасибо: 3 / 7
Сообщения: 4
Откуда: Приморье
Крик дельфина (1986) TVRip

Русское название: Крик дельфина
Год выпуска: 1986
Жанр: Фантастика, Драма

Описание фильма:
Подлодка "Архелон", принадлежащая военно-морским силам одной из западных стран, отправляется в длительное боевое патрулирование.
На борту — баллистические ракеты, часть из которых с биоматериалами. В результате разгерметизации одной из них на атомоходе начала распространяться странная и неизвестная болезнь. Вскоре экипаж становится неуправляемым... Возвращаться на берег нельзя. "Архелон" становится пленником океана...

Режиссер: Алексей Салтыков
Актеры: Ивар Калныньш, Донатас Банионис, Армен Джигарханян, Юрий Васильев, Паул Буткевич, Татьяна Паркина, Кэтеван Митиашвили, Надежда Бутырцева, Ростислав Янковский, Вилнис Бекерис, Владимир Шубарин, Ирина Погодина, Владимир Епископосян, Андрей Подошьян

Продолжительность: 01:29:20



Видеокодек: DivX 5
Битрейт видео: ~2000 kb/s
Размер кадра: 672 х 512
Качество видео: TVRip
Аудиокодек: MP3 2,0
Битрейт аудио: 128 kb/s
General
Complete name: F:\Torrents\Seedings\Krik_del'fina_[nnm-club.ru].avi
Format: AVI
Format/Info: Audio Video Interleave
File size: 1.33 GiB
Duration: 1h 29mn
Overall bit rate: 2 137 Kbps
Writing application: VirtualDubModRus 1.5.10.2 (build 2542/release)
Writing library: VirtualDub build 34670/release

Video
ID: 0
Format: MPEG-4 Visual
Format settings, BVOP: 1
Format settings, QPel: No
Format settings, GMC: No warppoints
Format settings, Matrix: Default (H.263)
Muxing mode: Packed bitstream
Codec ID: DX50
Codec ID/Hint: DivX 5
Duration: 1h 29mn
Bit rate: 2 000 Kbps
Width: 672 pixels
Height: 512 pixels
Display aspect ratio: 4:3
Frame rate: 25.000 fps
Color space: YUV
Chroma subsampling: 4:2:0
Bit depth: 8 bits
Scan type: Progressive
Compression mode: Lossy
Bits/(Pixel*Frame): 0.232
Stream size: 1.25 GiB (94%)
Writing library: DivX 6.8.5 (UTC 2009-08-20)

Audio
ID: 1
Format: MPEG Audio
Format version: Version 1
Format profile: Layer 3
Mode: Joint stereo
Codec ID: 55
Codec ID/Hint: MP3
Duration: 1h 29mn
Bit rate mode: Constant
Bit rate: 128 Kbps
Channel(s): 2 channels
Sampling rate: 44.1 KHz
Compression mode: Lossy
Stream size: 81.6 MiB (6%)
Alignment: Split accross interleaves
Interleave, duration: 40 ms (1.00 video frame)
Interleave, preload duration: 501 ms
Скриншоты:
На мой взгляд фильм стоящий. Собственно по этому я занялся его реставрацией. Для этого пришлось увеличить яркость/контраст и обрезать шумы аудио-тракта. Для этого были применены программы VirtualDub 1.10 и WaveLab 5.0.




реклама партнёра


Вернуться к началу
 Профиль Отправить личное сообщение  
 
   Похожие торренты   Автор   Торрент   Размер 
В этой теме нет новых непрочитанных сообщений. Крик и снова крик / Scream and Scream Again [фантастика, триллер, криминал, 1970] HDTVRip, Dvo [НТВ+]

salma3

39 | 3

1.37 ГБ

В этой теме нет новых непрочитанных сообщений. История дельфина 2 / Dolphin Tale 2 [драма, семейный, 2014] BDRip 720p, Dub+Sub [Лицензия]

Dracon

0 | 2

6.28 ГБ

В этой теме нет новых непрочитанных сообщений. Муха / The Fly [ужасы, фантастика, драма, 1986] DVD9, Mvo+Sub

salma3

4 | 3

4.87 ГБ

В этой теме нет новых непрочитанных сообщений. Кин-дза-дза! (2 серии из 2) [фантастика, драма, комедия, 1986] BDRip-AVC

salma3

18 | 18

1.44 ГБ

В этой теме нет новых непрочитанных сообщений. Дурная кровь / Mauvais sang [фантастика, триллер, драма, 1986] BDRip 720p, Mvo

salma3

55 | 35

6.09 ГБ

В этой теме нет новых непрочитанных сообщений. Смертельный друг / Deadly Friend [детектив, фантастика, ужасы, драма, 1986] HDTVRip 720p, Avo+Mvo

salma3

35 | 3

2.66 ГБ

В этой теме нет новых непрочитанных сообщений. Крик Совы / The Cry of the Owl [Триллер, драма, 2009] BDRip 1080p, Dvo+Sub

salma3

10 | 8

8.23 ГБ


Начать новую тему Ответить на тему  [ 1 сообщение ] 




Для Мосгорсуда, Роскомнадзора и рекламодателей:: mosgorsud-torrent[собачка]yandex.ru